  0
SECTION
  2
HEADER
  9
$ACADVER
  1
AC1021
  9
$DWGCODEPAGE
  3
ANSI_1252
  9
$EXTMAX
 10
1050.0
 20
742.5
 30
0.0
  9
$EXTMIN
 10
0.0
 20
0.0
 30
0.0
  9
$LIMMIN
 10
0.0
 20
0.0
  9
$LIMMAX
 10
1050.0
 20
742.5
  9
$VIEWCTR
 10
525.0
 20
371.25
  9
$VIEWSIZE
 40
742.5
  9
$CLAYER
  8
0
  9
$LTSCALE
 40
57.75
  9
$CELTYPE
  6
BYLAYER
  9
$DIMSCALE
 40
1.0
  9
$DIMASZ
 40
8.75
  9
$DIMEXO
 40
6.5625
  9
$DIMDLI
 40
39.9
  9
$DIMEXE
 40
18.9
  9
$DIMCEN
 40
9.45
  9
$DIMLFAC
 40
1.0
  9
$DIMBLK
  1
_FILLED
  9
$DIMTXT
 40
6.25
  9
$DIMTOL
 70
1
  9
$DIMLIM
 70
0
  9
$DIMTFAC
 40
1.0
  9
$DIMTP
 40
0.05
  9
$DIMTM
 40
0.05
  9
$PDMODE
 70
3
  9
$PDSIZE
 40
0.3125
  9
$HANDSEED
  5
429
  9
$TILEMODE
 70
1
  9
$MEASUREMENT
 70
1
  9
$INSUNITS
 70
4
  0
ENDSEC
  0
SECTION
  2
CLASSES
  0
CLASS
  1
ACDBDICTIONARYWDFLT
  2
AcDbDictionaryWithDefault
  3
AutoCAD 2000
 90
0
 91
1
280
0
281
0
  0
CLASS
  1
ACDBPLACEHOLDER
  2
AcDbPlaceHolder
  3
AutoCAD 2000
 90
0
 91
1
280
0
281
0
  0
CLASS
  1
LAYOUT
  2
AcDbLayout
  3
AutoCAD 2000
 90
0
 91
0
280
0
281
0
  0
ENDSEC
  0
SECTION
  2
TABLES
  0
TABLE
  2
VPORT
  5
8
100
AcDbSymbolTable
 70
2
  0
VPORT
  5
1F4
100
AcDbSymbolTableRecord
100
AcDbViewportTableRecord
  2
*ACTIVE
 70
0
 10
0.0
 20
0.0
 11
1.0
 21
1.0
 12
525.0
 22
371.25
 13
0.0
 23
0.0
 14
1.0
 24
1.0
 15
0.0
 25
0.0
 16
0.0
 26
0.0
 36
1.0
 17
0.0
 27
0.0
 37
0.0
 40
742.5
 41
1.4141414141
 42
50.0
 43
0.0
 44
0.0
 50
0.0
 51
0.0
 71
0
 72
100
 73
1
 74
1
 75
0
 76
0
 77
0
 78
0
  0
ENDTAB
  0
TABLE
  2
LTYPE
  5
5
100
AcDbSymbolTable
 70
6
  0
LTYPE
  5
14
100
AcDbSymbolTableRecord
100
AcDbLinetypeTableRecord
  2
BYBLOCK
 70
0
  3

 72
65
 73
0
 40
0.0
  0
LTYPE
  5
15
100
AcDbSymbolTableRecord
100
AcDbLinetypeTableRecord
  2
BYLAYER
 70
0
  3

 72
65
 73
0
 40
0.0
  0
LTYPE
  5
16
100
AcDbSymbolTableRecord
100
AcDbLinetypeTableRecord
  2
CONTINUOUS
 70
64
  3
Solid line
 72
65
 73
0
 40
0.0
  0
LTYPE
  5
1F5
100
AcDbSymbolTableRecord
100
AcDbLinetypeTableRecord
  2
CENTER
 70
64
  3
____ _ ____ _ ____ _ ____ _ ____ _ ____ _ ____
 72
65
 73
4
 40
0.6
 49
0.375
 74
0
 49
-0.075
 74
0
 49
0.075
 74
0
 49
-0.075
 74
0
  0
LTYPE
  5
1F6
100
AcDbSymbolTableRecord
100
AcDbLinetypeTableRecord
  2
HIDDEN
 70
64
  3
- - - - - - - - - - - - - - - - - - - -
 72
65
 73
2
 40
0.2
 49
0.1
 74
0
 49
-0.1
 74
0
  0
LTYPE
  5
1F7
100
AcDbSymbolTableRecord
100
AcDbLinetypeTableRecord
  2
PHANTOM
 70
64
  3
_____ _ _ _____ _ _ _____ _ _ _____
 72
65
 73
6
 40
0.8
 49
0.45
 74
0
 49
-0.05
 74
0
 49
0.1
 74
0
 49
-0.05
 74
0
 49
0.1
 74
0
 49
-0.05
 74
0
  0
LTYPE
  5
1F8
100
AcDbSymbolTableRecord
100
AcDbLinetypeTableRecord
  2
DOT
 70
64
  3
. . . . . . . . . . . . . . . . . . . .
 72
65
 73
2
 40
0.2
 49
0.1
 74
0
 49
-0.1
 74
0
  0
LTYPE
  5
1F9
100
AcDbSymbolTableRecord
100
AcDbLinetypeTableRecord
  2
DASHED
 70
64
  3
- - - - - - - - - - - - - - - - - - - -
 72
65
 73
2
 40
0.2
 49
0.1
 74
0
 49
-0.1
 74
0
  0
ENDTAB
  0
TABLE
  2
LAYER
  5
2
100
AcDbSymbolTable
 70
36
  0
LAYER
  5
10
100
AcDbSymbolTableRecord
100
AcDbLayerTableRecord
  2
0
 70
0
 62
7
  6
CONTINUOUS
370
-3
390
F
  0
LAYER
  5
1FA
100
AcDbSymbolTableRecord
100
AcDbLayerTableRecord
  2
DEFAULT_1
 70
0
 62
7
  6
CENTER
370
-3
390
F
  0
LAYER
  5
1FB
100
AcDbSymbolTableRecord
100
AcDbLayerTableRecord
  2
DEFAULT_2
 70
0
 62
8
  6
HIDDEN
370
-3
390
F
  0
LAYER
  5
1FC
100
AcDbSymbolTableRecord
100
AcDbLayerTableRecord
  2
DEFAULT_3
 70
0
 62
7
  6
PHANTOM
370
-3
390
F
  0
LAYER
  5
1FD
100
AcDbSymbolTableRecord
100
AcDbLayerTableRecord
  2
BEZUGSACHSEN
 70
0
 62
7
  6
CONTINUOUS
370
-3
390
F
  0
LAYER
  5
1FE
100
AcDbSymbolTableRecord
100
AcDbLayerTableRecord
  2
BEZUGSEBENEN
 70
0
 62
7
  6
CONTINUOUS
370
-3
390
F
  0
LAYER
  5
1FF
100
AcDbSymbolTableRecord
100
AcDbLayerTableRecord
  2
BLATT1_ANSICHT_ABTRIEB
 70
0
 62
7
  6
CONTINUOUS
370
-3
390
F
  0
LAYER
  5
200
100
AcDbSymbolTableRecord
100
AcDbLayerTableRecord
  2
BLATT1_ANSICHT_ANTRIEB
 70
0
 62
7
  6
CONTINUOUS
370
-3
390
F
  0
LAYER
  5
201
100
AcDbSymbolTableRecord
100
AcDbLayerTableRecord
  2
BLATT1_ANSICHT_MITTE
 70
0
 62
7
  6
CONTINUOUS
370
-3
390
F
  0
LAYER
  5
202
100
AcDbSymbolTableRecord
100
AcDbLayerTableRecord
  2
BLATT2_3D_ANSICHT
 70
0
 62
7
  6
CONTINUOUS
370
-3
390
F
  0
LAYER
  5
203
100
AcDbSymbolTableRecord
100
AcDbLayerTableRecord
  2
BOHRUNGEN
 70
0
 62
7
  6
CONTINUOUS
370
-3
390
F
  0
LAYER
  5
204
100
AcDbSymbolTableRecord
100
AcDbLayerTableRecord
  2
FASEN
 70
0
 62
7
  6
CONTINUOUS
370
-3
390
F
  0
LAYER
  5
205
100
AcDbSymbolTableRecord
100
AcDbLayerTableRecord
  2
GEWINDE
 70
0
 62
7
  6
CONTINUOUS
370
-3
390
F
  0
LAYER
  5
206
100
AcDbSymbolTableRecord
100
AcDbLayerTableRecord
  2
HILFEN
 70
0
 62
7
  6
CONTINUOUS
370
-3
390
F
  0
LAYER
  5
207
100
AcDbSymbolTableRecord
100
AcDbLayerTableRecord
  2
KURVEN
 70
0
 62
7
  6
CONTINUOUS
370
-3
390
F
  0
LAYER
  5
208
100
AcDbSymbolTableRecord
100
AcDbLayerTableRecord
  2
PLAZIERUNG
 70
0
 62
7
  6
CONTINUOUS
370
-3
390
F
  0
LAYER
  5
209
100
AcDbSymbolTableRecord
100
AcDbLayerTableRecord
  2
RUNDUNGEN
 70
0
 62
7
  6
CONTINUOUS
370
-3
390
F
  0
LAYER
  5
20A
100
AcDbSymbolTableRecord
100
AcDbLayerTableRecord
  2
TEIL_STARTBEZUEGE
 70
0
 62
7
  6
CONTINUOUS
370
-3
390
F
  0
LAYER
  5
20B
100
AcDbSymbolTableRecord
100
AcDbLayerTableRecord
  2
ZEICHNUNGSBEMASSUNGEN
 70
0
 62
7
  6
CONTINUOUS
370
-3
390
F
  0
ENDTAB
  0
TABLE
  2
STYLE
  5
3
100
AcDbSymbolTable
 70
1
  0
STYLE
  5
11
100
AcDbSymbolTableRecord
100
AcDbTextStyleTableRecord
  2
STANDARD
 70
0
 40
0.0
 41
0.7
 50
0.0
 71
0
 42
0.2
  3
txt
  4

  0
STYLE
  5
20C
100
AcDbSymbolTableRecord
100
AcDbTextStyleTableRecord
  2
TEXTSTYLE_1
 70
0
 40
0.0
 41
0.8
 50
0.0
 71
0
 42
0.2
  3
gdt
  4

  0
STYLE
  5
20D
100
AcDbSymbolTableRecord
100
AcDbTextStyleTableRecord
  2
TEXTSTYLE_2
 70
0
 40
0.0
 41
0.7
 50
0.0
 71
0
 42
0.2
  3
gdt
  4

  0
STYLE
  5
20E
100
AcDbSymbolTableRecord
100
AcDbTextStyleTableRecord
  2
TEXTSTYLE_3
 70
0
 40
0.0
 41
0.6
 50
0.0
 71
0
 42
0.2
  3
txt
  4

  0
ENDTAB
  0
TABLE
  2
VIEW
  5
6
100
AcDbSymbolTable
 70
0
  0
ENDTAB
  0
TABLE
  2
UCS
  5
7
100
AcDbSymbolTable
 70
0
  0
ENDTAB
  0
TABLE
  2
APPID
  5
9
100
AcDbSymbolTable
 70
1
  0
APPID
  5
20F
100
AcDbSymbolTableRecord
100
AcDbRegAppTableRecord
  2
ACAD
 70
0
  0
ENDTAB
  0
TABLE
  2
BLOCK_RECORD
  5
1
100
AcDbSymbolTable
 70
0
  0
BLOCK_RECORD
  5
210
100
AcDbSymbolTableRecord
100
AcDbBlockTableRecord
  2
*Model_Space
  0
BLOCK_RECORD
  5
211
100
AcDbSymbolTableRecord
100
AcDbBlockTableRecord
  2
*Paper_Space
  0
BLOCK_RECORD
  5
212
100
AcDbSymbolTableRecord
100
AcDbBlockTableRecord
  2
_FILLED
  0
BLOCK_RECORD
  5
213
100
AcDbSymbolTableRecord
100
AcDbBlockTableRecord
  2
_DOTBLANK
  0
BLOCK_RECORD
  5
214
100
AcDbSymbolTableRecord
100
AcDbBlockTableRecord
  2
*D0
  0
BLOCK_RECORD
  5
215
100
AcDbSymbolTableRecord
100
AcDbBlockTableRecord
  2
*D1
  0
BLOCK_RECORD
  5
216
100
AcDbSymbolTableRecord
100
AcDbBlockTableRecord
  2
*D2
  0
BLOCK_RECORD
  5
217
100
AcDbSymbolTableRecord
100
AcDbBlockTableRecord
  2
*D3
  0
BLOCK_RECORD
  5
218
100
AcDbSymbolTableRecord
100
AcDbBlockTableRecord
  2
*D4
  0
BLOCK_RECORD
  5
219
100
AcDbSymbolTableRecord
100
AcDbBlockTableRecord
  2
*D5
  0
BLOCK_RECORD
  5
21A
100
AcDbSymbolTableRecord
100
AcDbBlockTableRecord
  2
*D6
  0
BLOCK_RECORD
  5
21B
100
AcDbSymbolTableRecord
100
AcDbBlockTableRecord
  2
*D7
  0
BLOCK_RECORD
  5
21C
100
AcDbSymbolTableRecord
100
AcDbBlockTableRecord
  2
*D8
  0
BLOCK_RECORD
  5
21D
100
AcDbSymbolTableRecord
100
AcDbBlockTableRecord
  2
*D9
  0
BLOCK_RECORD
  5
21E
100
AcDbSymbolTableRecord
100
AcDbBlockTableRecord
  2
*D10
  0
BLOCK_RECORD
  5
21F
100
AcDbSymbolTableRecord
100
AcDbBlockTableRecord
  2
*D11
  0
BLOCK_RECORD
  5
220
100
AcDbSymbolTableRecord
100
AcDbBlockTableRecord
  2
*D12
  0
BLOCK_RECORD
  5
221
100
AcDbSymbolTableRecord
100
AcDbBlockTableRecord
  2
*D13
  0
BLOCK_RECORD
  5
222
100
AcDbSymbolTableRecord
100
AcDbBlockTableRecord
  2
*D14
  0
BLOCK_RECORD
  5
223
100
AcDbSymbolTableRecord
100
AcDbBlockTableRecord
  2
*D15
  0
BLOCK_RECORD
  5
224
100
AcDbSymbolTableRecord
100
AcDbBlockTableRecord
  2
*D16
  0
BLOCK_RECORD
  5
225
100
AcDbSymbolTableRecord
100
AcDbBlockTableRecord
  2
*D17
  0
BLOCK_RECORD
  5
226
100
AcDbSymbolTableRecord
100
AcDbBlockTableRecord
  2
*D18
  0
BLOCK_RECORD
  5
227
100
AcDbSymbolTableRecord
100
AcDbBlockTableRecord
  2
*D19
  0
BLOCK_RECORD
  5
228
100
AcDbSymbolTableRecord
100
AcDbBlockTableRecord
  2
*D20
  0
BLOCK_RECORD
  5
229
100
AcDbSymbolTableRecord
100
AcDbBlockTableRecord
  2
*D21
  0
BLOCK_RECORD
  5
22A
100
AcDbSymbolTableRecord
100
AcDbBlockTableRecord
  2
*D22
  0
BLOCK_RECORD
  5
22B
100
AcDbSymbolTableRecord
100
AcDbBlockTableRecord
  2
*D23
  0
BLOCK_RECORD
  5
22C
100
AcDbSymbolTableRecord
100
AcDbBlockTableRecord
  2
*D24
  0
BLOCK_RECORD
  5
22D
100
AcDbSymbolTableRecord
100
AcDbBlockTableRecord
  2
*D25
  0
BLOCK_RECORD
  5
22E
100
AcDbSymbolTableRecord
100
AcDbBlockTableRecord
  2
*D26
  0
ENDTAB
  0
TABLE
  2
DIMSTYLE
  5
A
100
AcDbSymbolTable
 70
1
100
AcDbDimStyleTable
 71
0
  0
DIMSTYLE
105
22F
100
AcDbSymbolTableRecord
100
AcDbDimStyleTableRecord
  2
STANDARD
 70
0
  3

  4

 40
1.0
 41
8.75
 42
0.0625
 43
0.38
 44
0.18
 45
0.0
 46
0.0
 47
0.05
 48
0.05
140
6.25
141
0.09
142
0.0
143
25.4
144
1.0
145
0.0
146
1.0
147
0.09
 71
1.0
 72
0.0
 73
0
 74
0
 75
0
 76
0
 77
1
 78
8
170
0
171
2
172
0
173
0
174
0
175
0
176
0
177
0
178
5
270
2
271
2
272
2
273
2
274
2
275
0
280
0
281
0
282
0
283
1
284
8
285
0
286
0
287
3
288
0
340
11
341
212
342
212
343
212
344
212
  0
DIMSTYLE
105
230
100
AcDbSymbolTableRecord
100
AcDbDimStyleTableRecord
  2
DIMSTYLE_1
 70
0
  3

  4

 40
1.0
 41
8.75
 42
0.0625
 43
0.38
 44
0.18
 45
0.0
 46
0.0
 47
0.5
 48
0.5
140
6.25
141
0.09
142
0.0
143
25.4
144
1.0
145
0.0
146
1.0
147
0.09
 71
0.0
 72
0.0
 73
0
 74
0
 75
0
 76
0
 77
1
 78
8
170
0
171
2
172
0
173
0
174
0
175
0
176
0
177
0
178
5
270
2
271
3
272
3
273
2
274
2
275
0
280
0
281
0
282
0
283
1
284
8
285
0
286
0
287
3
288
0
340
11
341
212
342
212
343
212
344
212
  0
DIMSTYLE
105
231
100
AcDbSymbolTableRecord
100
AcDbDimStyleTableRecord
  2
DIMSTYLE_2
 70
0
  3

  4

 40
1.0
 41
8.75
 42
0.0625
 43
0.38
 44
0.18
 45
0.0
 46
0.0
 47
0.3
 48
0.3
140
6.25
141
0.09
142
0.0
143
25.4
144
1.0
145
0.0
146
1.0
147
0.09
 71
0.0
 72
0.0
 73
0
 74
0
 75
0
 76
0
 77
1
 78
8
170
0
171
2
172
0
173
0
174
0
175
0
176
0
177
0
178
5
270
2
271
3
272
3
273
2
274
2
275
0
280
0
281
0
282
0
283
1
284
8
285
0
286
0
287
3
288
0
340
11
341
212
342
212
343
212
344
212
  0
DIMSTYLE
105
232
100
AcDbSymbolTableRecord
100
AcDbDimStyleTableRecord
  2
DIMSTYLE_3
 70
0
  3

  4

 40
1.0
 41
8.75
 42
0.0625
 43
0.38
 44
0.18
 45
0.0
 46
0.0
 47
0.0
 48
0.015
140
6.25
141
0.09
142
0.0
143
25.4
144
1.0
145
0.0
146
1.0
147
0.09
 71
0.0
 72
0.0
 73
0
 74
0
 75
0
 76
0
 77
1
 78
8
170
0
171
2
172
0
173
0
174
0
175
0
176
0
177
0
178
5
270
2
271
3
272
3
273
2
274
2
275
0
280
0
281
0
282
0
283
1
284
8
285
0
286
0
287
3
288
0
340
11
341
212
342
212
343
212
344
212
  0
DIMSTYLE
105
233
100
AcDbSymbolTableRecord
100
AcDbDimStyleTableRecord
  2
DIMSTYLE_4
 70
0
  3

  4

 40
1.0
 41
8.75
 42
0.0625
 43
0.38
 44
0.18
 45
0.0
 46
0.0
 47
0.1
 48
0.1
140
6.25
141
0.09
142
0.0
143
25.4
144
1.0
145
0.0
146
1.0
147
0.09
 71
0.0
 72
0.0
 73
0
 74
0
 75
0
 76
0
 77
1
 78
8
170
0
171
2
172
0
173
0
174
0
175
0
176
0
177
0
178
5
270
2
271
3
272
3
273
2
274
2
275
0
280
0
281
0
282
0
283
1
284
8
285
0
286
0
287
3
288
0
340
11
341
212
342
212
343
212
344
212
  0
DIMSTYLE
105
234
100
AcDbSymbolTableRecord
100
AcDbDimStyleTableRecord
  2
DIMSTYLE_5
 70
0
  3

  4

 40
1.0
 41
8.75
 42
0.0625
 43
0.38
 44
0.18
 45
0.0
 46
0.0
 47
0.2
 48
0.2
140
6.25
141
0.09
142
0.0
143
25.4
144
1.0
145
0.0
146
1.0
147
0.09
 71
0.0
 72
0.0
 73
0
 74
0
 75
0
 76
0
 77
1
 78
8
170
0
171
2
172
0
173
0
174
0
175
0
176
0
177
0
178
5
270
2
271
3
272
3
273
2
274
2
275
0
280
0
281
0
282
0
283
1
284
8
285
0
286
0
287
3
288
0
340
11
341
212
342
212
343
212
344
212
  0
DIMSTYLE
105
235
100
AcDbSymbolTableRecord
100
AcDbDimStyleTableRecord
  2
DIMSTYLE_6
 70
0
  3

  4

 40
1.0
 41
8.75
 42
0.0625
 43
0.38
 44
0.18
 45
0.0
 46
0.0
 47
0.5
 48
0.5
140
6.25
141
0.09
142
0.0
143
25.4
144
1.0
145
0.0
146
1.0
147
0.09
 71
0.0
 72
0.0
 73
0
 74
0
 75
0
 76
0
 77
1
 78
8
170
0
171
2
172
0
173
0
174
0
175
0
176
0
177
0
178
5
270
2
271
3
272
3
273
2
274
2
275
0
280
0
281
0
282
0
283
1
284
8
285
0
286
0
287
3
288
0
340
11
341
212
342
212
343
212
344
212
  0
DIMSTYLE
105
236
100
AcDbSymbolTableRecord
100
AcDbDimStyleTableRecord
  2
DIMSTYLE_7
 70
0
  3

  4

 40
1.0
 41
8.75
 42
0.0625
 43
0.38
 44
0.18
 45
0.0
 46
0.0
 47
0.05
 48
-0.02
140
6.25
141
0.09
142
0.0
143
25.4
144
1.0
145
0.0
146
0.6
147
0.09
 71
1.0
 72
0.0
 73
0
 74
0
 75
0
 76
0
 77
1
 78
8
170
0
171
2
172
0
173
0
174
0
175
0
176
0
177
0
178
5
270
2
271
3
272
3
273
2
274
2
275
0
280
0
281
0
282
0
283
1
284
8
285
0
286
0
287
3
288
0
340
11
341
212
342
212
343
212
344
212
  0
DIMSTYLE
105
237
100
AcDbSymbolTableRecord
100
AcDbDimStyleTableRecord
  2
DIMSTYLE_8
 70
0
  3

  4

 40
1.0
 41
8.75
 42
0.0625
 43
0.38
 44
0.18
 45
0.0
 46
0.0
 47
0.1
 48
0.1
140
6.25
141
0.09
142
0.0
143
25.4
144
1.0
145
0.0
146
1.0
147
0.09
 71
0.0
 72
0.0
 73
0
 74
0
 75
0
 76
0
 77
1
 78
8
170
0
171
2
172
0
173
0
174
0
175
0
176
0
177
0
178
5
270
2
271
3
272
3
273
2
274
2
275
0
280
0
281
0
282
0
283
1
284
8
285
0
286
0
287
3
288
0
340
11
341
212
342
212
343
212
344
212
  0
ENDTAB
  0
ENDSEC
  0
SECTION
  2
BLOCKS
  0
BLOCK
  5
20
100
AcDbEntity
  8
0
100
AcDbBlockBegin
  2
*Model_Space
 70
0
 10
0.0
 20
0.0
 30
0.0
  3
*Model_Space
  1

  0
ENDBLK
  5
21
100
AcDbEntity
  8
0
100
AcDbBlockEnd
  0
BLOCK
  5
1C
100
AcDbEntity
  8
0
100
AcDbBlockBegin
  2
*Paper_Space
 70
0
 10
0.0
 20
0.0
 30
0.0
  3
*Paper_Space
  1

  0
ENDBLK
  5
1D
100
AcDbEntity
  8
0
100
AcDbBlockEnd
  0
BLOCK
  5
238
100
AcDbEntity
  8
0
100
AcDbBlockBegin
  2
_FILLED
 70
64
 10
0.0
 20
0.0
  3
_FILLED
  1

  0
SOLID
  5
239
100
AcDbEntity
  8
0
  6
BYBLOCK
 62
0
100
AcDbTrace
 10
0.0
 20
0.0
 11
-1.0
 21
0.125
 12
-1.0
 22
-0.125
 13
-1.0
 23
-0.125
  0
ENDBLK
  5
23A
100
AcDbEntity
  8
0
  6
BYBLOCK
 62
0
100
AcDbBlockEnd
  0
BLOCK
  5
23B
100
AcDbEntity
  8
0
100
AcDbBlockBegin
  2
_DOTBLANK
 70
64
 10
0.0
 20
0.0
  3
_DOTBLANK
  1

  0
CIRCLE
  5
23C
100
AcDbEntity
  8
0
  6
BYBLOCK
 62
0
100
AcDbCircle
 10
0.0
 20
0.0
 40
0.125
  0
LINE
  5
23D
100
AcDbEntity
  8
0
  6
BYBLOCK
 62
0
100
AcDbLine
 10
-1.0
 20
0.0
 11
0.0
 21
0.0
  0
ENDBLK
  5
23E
100
AcDbEntity
  8
0
  6
BYBLOCK
 62
0
100
AcDbBlockEnd
  0
BLOCK
  5
23F
100
AcDbEntity
  8
ZEICHNUNGSBEMASSUNGEN
100
AcDbBlockBegin
 62
2
  6
CONTINUOUS
  2
*D0
 70
65
 10
0.0
 20
0.0
  3
*D0
  1

  0
MTEXT
  5
240
100
AcDbEntity
  8
ZEICHNUNGSBEMASSUNGEN
100
AcDbMText
 62
5
  6
CONTINUOUS
  7
STANDARD
 71
2
 72
1
 10
522.1459315248
 20
676.1934201264
 30
0.0
 11
1.0
 21
0.0
 31
0.0
 44
0.9
  1
305.5
 40
6.25
 41
21.875
  0
LINE
  5
241
100
AcDbEntity
  8
ZEICHNUNGSBEMASSUNGEN
100
AcDbLine
 62
2
  6
CONTINUOUS
 10
369.3959315248
 20
564.6309201264
 11
369.3959315248
 21
672.1309201264
  0
LINE
  5
242
100
AcDbEntity
  8
ZEICHNUNGSBEMASSUNGEN
100
AcDbLine
 62
2
  6
CONTINUOUS
 10
674.8959315248
 20
494.6309201264
 11
674.8959315248
 21
672.1309201264
  0
LINE
  5
243
100
AcDbEntity
  8
ZEICHNUNGSBEMASSUNGEN
100
AcDbLine
 62
2
  6
CONTINUOUS
 10
369.3959315248
 20
668.3809201264
 11
522.1459315248
 21
668.3809201264
  0
LINE
  5
244
100
AcDbEntity
  8
ZEICHNUNGSBEMASSUNGEN
100
AcDbLine
 62
2
  6
CONTINUOUS
 10
674.8959315248
 20
668.3809201264
 11
522.1459315248
 21
668.3809201264
  0
INSERT
  5
245
100
AcDbEntity
  8
ZEICHNUNGSBEMASSUNGEN
100
AcDbBlockReference
 62
2
  6
CONTINUOUS
  2
_FILLED
 10
369.3959315248
 20
668.3809201264
 41
8.75
 42
8.75
 43
8.75
 50
180.0
  0
INSERT
  5
246
100
AcDbEntity
  8
ZEICHNUNGSBEMASSUNGEN
100
AcDbBlockReference
 62
2
  6
CONTINUOUS
  2
_FILLED
 10
674.8959315248
 20
668.3809201264
 41
8.75
 42
8.75
 43
8.75
  0
ENDBLK
  5
247
100
AcDbEntity
  8
0
  6
BYBLOCK
 62
0
100
AcDbBlockEnd
  0
BLOCK
  5
248
100
AcDbEntity
  8
ZEICHNUNGSBEMASSUNGEN
100
AcDbBlockBegin
 62
2
  6
CONTINUOUS
  2
*D1
 70
65
 10
0.0
 20
0.0
  3
*D1
  1

  0
MTEXT
  5
249
100
AcDbEntity
  8
ZEICHNUNGSBEMASSUNGEN
100
AcDbMText
 62
5
  6
CONTINUOUS
  7
STANDARD
 71
2
 72
1
 10
409.3959315248
 20
341.1934201264
 30
0.0
 11
1.0
 21
0.0
 31
0.0
 44
0.9
  1
80
 40
6.25
 41
9.8214285714
  0
LINE
  5
24A
100
AcDbEntity
  8
ZEICHNUNGSBEMASSUNGEN
100
AcDbLine
 62
2
  6
CONTINUOUS
 10
369.3959315248
 20
382.1309201264
 11
369.3959315248
 21
329.6309201264
  0
LINE
  5
24B
100
AcDbEntity
  8
ZEICHNUNGSBEMASSUNGEN
100
AcDbLine
 62
2
  6
CONTINUOUS
 10
449.3959315248
 20
454.6309201264
 11
449.3959315248
 21
329.6309201264
  0
LINE
  5
24C
100
AcDbEntity
  8
ZEICHNUNGSBEMASSUNGEN
100
AcDbLine
 62
2
  6
CONTINUOUS
 10
369.3959315248
 20
333.3809201264
 11
409.3959315248
 21
333.3809201264
  0
LINE
  5
24D
100
AcDbEntity
  8
ZEICHNUNGSBEMASSUNGEN
100
AcDbLine
 62
2
  6
CONTINUOUS
 10
449.3959315248
 20
333.3809201264
 11
409.3959315248
 21
333.3809201264
  0
INSERT
  5
24E
100
AcDbEntity
  8
ZEICHNUNGSBEMASSUNGEN
100
AcDbBlockReference
 62
2
  6
CONTINUOUS
  2
_FILLED
 10
369.3959315248
 20
333.3809201264
 41
8.75
 42
8.75
 43
8.75
 50
180.0
  0
INSERT
  5
24F
100
AcDbEntity
  8
ZEICHNUNGSBEMASSUNGEN
100
AcDbBlockReference
 62
2
  6
CONTINUOUS
  2
_FILLED
 10
449.3959315248
 20
333.3809201264
 41
8.75
 42
8.75
 43
8.75
  0
ENDBLK
  5
250
100
AcDbEntity
  8
0
  6
BYBLOCK
 62
0
100
AcDbBlockEnd
  0
BLOCK
  5
251
100
AcDbEntity
  8
ZEICHNUNGSBEMASSUNGEN
100
AcDbBlockBegin
 62
2
  6
CONTINUOUS
  2
*D2
 70
65
 10
0.0
 20
0.0
  3
*D2
  1

  0
MTEXT
  5
252
100
AcDbEntity
  8
ZEICHNUNGSBEMASSUNGEN
100
AcDbMText
 62
5
  6
CONTINUOUS
  7
STANDARD
 71
2
 72
1
 10
423.6459315248
 20
651.1934201264
 30
0.0
 11
1.0
 21
0.0
 31
0.0
 44
0.9
  1
108.5
 40
6.25
 41
21.4285714286
  0
LINE
  5
253
100
AcDbEntity
  8
ZEICHNUNGSBEMASSUNGEN
100
AcDbLine
 62
2
  6
CONTINUOUS
 10
369.3959315248
 20
580.8809201264
 11
369.3959315248
 21
647.1309201264
  0
LINE
  5
254
100
AcDbEntity
  8
ZEICHNUNGSBEMASSUNGEN
100
AcDbLine
 62
2
  6
CONTINUOUS
 10
477.8959315248
 20
545.2532038439
 11
477.8959315248
 21
647.1309201264
  0
LINE
  5
255
100
AcDbEntity
  8
ZEICHNUNGSBEMASSUNGEN
100
AcDbLine
 62
2
  6
CONTINUOUS
 10
369.3959315248
 20
643.3809201264
 11
423.6459315248
 21
643.3809201264
  0
LINE
  5
256
100
AcDbEntity
  8
ZEICHNUNGSBEMASSUNGEN
100
AcDbLine
 62
2
  6
CONTINUOUS
 10
477.8959315248
 20
643.3809201264
 11
423.6459315248
 21
643.3809201264
  0
INSERT
  5
257
100
AcDbEntity
  8
ZEICHNUNGSBEMASSUNGEN
100
AcDbBlockReference
 62
2
  6
CONTINUOUS
  2
_FILLED
 10
369.3959315248
 20
643.3809201264
 41
8.75
 42
8.75
 43
8.75
 50
180.0
  0
INSERT
  5
258
100
AcDbEntity
  8
ZEICHNUNGSBEMASSUNGEN
100
AcDbBlockReference
 62
2
  6
CONTINUOUS
  2
_FILLED
 10
477.8959315248
 20
643.3809201264
 41
8.75
 42
8.75
 43
8.75
  0
ENDBLK
  5
259
100
AcDbEntity
  8
0
  6
BYBLOCK
 62
0
100
AcDbBlockEnd
  0
BLOCK
  5
25A
100
AcDbEntity
  8
ZEICHNUNGSBEMASSUNGEN
100
AcDbBlockBegin
 62
2
  6
CONTINUOUS
  2
*D3
 70
65
 10
0.0
 20
0.0
  3
*D3
  1

  0
MTEXT
  5
25B
100
AcDbEntity
  8
ZEICHNUNGSBEMASSUNGEN
100
AcDbMText
 62
5
  6
CONTINUOUS
  7
STANDARD
 71
2
 72
1
 10
626.3959315248
 20
651.1934201264
 30
0.0
 11
1.0
 21
0.0
 31
0.0
 44
0.9
  1
97
 40
6.25
 41
9.8214285714
  0
LINE
  5
25C
100
AcDbEntity
  8
ZEICHNUNGSBEMASSUNGEN
100
AcDbLine
 62
2
  6
CONTINUOUS
 10
577.8959315248
 20
552.1309201264
 11
577.8959315248
 21
647.1309201264
  0
LINE
  5
25D
100
AcDbEntity
  8
ZEICHNUNGSBEMASSUNGEN
100
AcDbLine
 62
2
  6
CONTINUOUS
 10
674.8959315248
 20
496.1309201264
 11
674.8959315248
 21
647.1309201264
  0
LINE
  5
25E
100
AcDbEntity
  8
ZEICHNUNGSBEMASSUNGEN
100
AcDbLine
 62
2
  6
CONTINUOUS
 10
577.8959315248
 20
643.3809201264
 11
626.3959315248
 21
643.3809201264
  0
LINE
  5
25F
100
AcDbEntity
  8
ZEICHNUNGSBEMASSUNGEN
100
AcDbLine
 62
2
  6
CONTINUOUS
 10
674.8959315248
 20
643.3809201264
 11
626.3959315248
 21
643.3809201264
  0
INSERT
  5
260
100
AcDbEntity
  8
ZEICHNUNGSBEMASSUNGEN
100
AcDbBlockReference
 62
2
  6
CONTINUOUS
  2
_FILLED
 10
577.8959315248
 20
643.3809201264
 41
8.75
 42
8.75
 43
8.75
 50
180.0
  0
INSERT
  5
261
100
AcDbEntity
  8
ZEICHNUNGSBEMASSUNGEN
100
AcDbBlockReference
 62
2
  6
CONTINUOUS
  2
_FILLED
 10
674.8959315248
 20
643.3809201264
 41
8.75
 42
8.75
 43
8.75
  0
ENDBLK
  5
262
100
AcDbEntity
  8
0
  6
BYBLOCK
 62
0
100
AcDbBlockEnd
  0
BLOCK
  5
263
100
AcDbEntity
  8
0
100
AcDbBlockBegin
 62
2
  6
CONTINUOUS
  2
*D4
 70
65
 10
0.0
 20
0.0
  3
*D4
  1

  0
MTEXT
  5
264
100
AcDbEntity
  8
0
100
AcDbMText
 62
5
  6
CONTINUOUS
  7
TEXTSTYLE_2
 71
3
 72
1
 10
697.0834315248
 20
382.3809201264
 30
0.0
 11
0.0
 21
1.0
 31
0.0
 44
0.9
  1
{\Fgdt;n}\Ftxt;40
 40
6.25
 41
18.1547619048
  0
LINE
  5
265
100
AcDbEntity
  8
0
100
AcDbLine
 62
2
  6
CONTINUOUS
 10
676.1459315248
 20
493.3809201264
 11
708.6459315248
 21
493.3809201264
  0
LINE
  5
266
100
AcDbEntity
  8
0
100
AcDbLine
 62
2
  6
CONTINUOUS
 10
676.1459315248
 20
453.3809201264
 11
708.6459315248
 21
453.3809201264
  0
LINE
  5
267
100
AcDbEntity
  8
0
100
AcDbLine
 62
2
  6
CONTINUOUS
 10
704.8959315248
 20
493.3809201264
 11
704.8959315248
 21
473.3809201264
  0
LINE
  5
268
100
AcDbEntity
  8
0
100
AcDbLine
 62
2
  6
CONTINUOUS
 10
704.8959315248
 20
453.3809201264
 11
704.8959315248
 21
473.3809201264
  0
LINE
  5
269
100
AcDbEntity
  8
0
100
AcDbLine
 62
2
  6
CONTINUOUS
 10
704.8959315248
 20
473.3809201264
 11
704.8959315248
 21
364.2261582217
  0
INSERT
  5
26A
100
AcDbEntity
  8
0
100
AcDbBlockReference
 62
2
  6
CONTINUOUS
  2
_FILLED
 10
704.8959315248
 20
493.3809201264
 41
8.75
 42
8.75
 43
8.75
 50
90.0
  0
INSERT
  5
26B
100
AcDbEntity
  8
0
100
AcDbBlockReference
 62
2
  6
CONTINUOUS
  2
_FILLED
 10
704.8959315248
 20
453.3809201264
 41
8.75
 42
8.75
 43
8.75
 50
270.0
  0
ENDBLK
  5
26C
100
AcDbEntity
  8
0
  6
BYBLOCK
 62
0
100
AcDbBlockEnd
  0
BLOCK
  5
26D
100
AcDbEntity
  8
0
100
AcDbBlockBegin
 62
2
  6
CONTINUOUS
  2
*D5
 70
65
 10
0.0
 20
0.0
  3
*D5
  1

  0
MTEXT
  5
26E
100
AcDbEntity
  8
0
100
AcDbMText
 62
5
  6
CONTINUOUS
  7
STANDARD
 71
2
 72
1
 10
633.8959315248
 20
616.1934201264
 30
0.0
 11
1.0
 21
0.0
 31
0.0
 44
0.9
  1
82
 40
6.25
 41
9.8214285714
  0
LINE
  5
26F
100
AcDbEntity
  8
0
100
AcDbLine
 62
2
  6
CONTINUOUS
 10
674.8959315248
 20
494.6309201264
 11
674.8959315248
 21
612.1309201264
  0
LINE
  5
270
100
AcDbEntity
  8
0
100
AcDbLine
 62
2
  6
CONTINUOUS
 10
592.8959315248
 20
502.1309201264
 11
592.8959315248
 21
612.1309201264
  0
LINE
  5
271
100
AcDbEntity
  8
0
100
AcDbLine
 62
2
  6
CONTINUOUS
 10
674.8959315248
 20
608.3809201264
 11
633.8959315248
 21
608.3809201264
  0
LINE
  5
272
100
AcDbEntity
  8
0
100
AcDbLine
 62
2
  6
CONTINUOUS
 10
592.8959315248
 20
608.3809201264
 11
633.8959315248
 21
608.3809201264
  0
INSERT
  5
273
100
AcDbEntity
  8
0
100
AcDbBlockReference
 62
2
  6
CONTINUOUS
  2
_FILLED
 10
674.8959315248
 20
608.3809201264
 41
8.75
 42
8.75
 43
8.75
  0
INSERT
  5
274
100
AcDbEntity
  8
0
100
AcDbBlockReference
 62
2
  6
CONTINUOUS
  2
_FILLED
 10
592.8959315248
 20
608.3809201264
 41
8.75
 42
8.75
 43
8.75
 50
180.0
  0
ENDBLK
  5
275
100
AcDbEntity
  8
0
  6
BYBLOCK
 62
0
100
AcDbBlockEnd
  0
BLOCK
  5
276
100
AcDbEntity
  8
0
100
AcDbBlockBegin
 62
2
  6
CONTINUOUS
  2
*D6
 70
65
 10
0.0
 20
0.0
  3
*D6
  1

  0
MTEXT
  5
277
100
AcDbEntity
  8
0
100
AcDbMText
 62
5
  6
CONTINUOUS
  7
TEXTSTYLE_2
 71
2
 72
1
 10
719.5834315248
 20
473.3809201264
 30
0.0
 11
0.0
 21
1.0
 31
0.0
 44
0.9
  1
{\Fgdt;n}\Ftxt;55
 40
6.25
 41
17.2619047619
  0
LINE
  5
278
100
AcDbEntity
  8
0
100
AcDbLine
 62
2
  6
CONTINUOUS
 10
594.1459315248
 20
500.8809201264
 11
731.1459315248
 21
500.8809201264
  0
LINE
  5
279
100
AcDbEntity
  8
0
100
AcDbLine
 62
2
  6
CONTINUOUS
 10
594.1459315248
 20
445.8809201264
 11
731.1459315248
 21
445.8809201264
  0
LINE
  5
27A
100
AcDbEntity
  8
0
100
AcDbLine
 62
2
  6
CONTINUOUS
 10
727.3959315248
 20
500.8809201264
 11
727.3959315248
 21
473.3809201264
  0
LINE
  5
27B
100
AcDbEntity
  8
0
100
AcDbLine
 62
2
  6
CONTINUOUS
 10
727.3959315248
 20
445.8809201264
 11
727.3959315248
 21
473.3809201264
  0
INSERT
  5
27C
100
AcDbEntity
  8
0
100
AcDbBlockReference
 62
2
  6
CONTINUOUS
  2
_FILLED
 10
727.3959315248
 20
500.8809201264
 41
8.75
 42
8.75
 43
8.75
 50
90.0
  0
INSERT
  5
27D
100
AcDbEntity
  8
0
100
AcDbBlockReference
 62
2
  6
CONTINUOUS
  2
_FILLED
 10
727.3959315248
 20
445.8809201264
 41
8.75
 42
8.75
 43
8.75
 50
270.0
  0
ENDBLK
  5
27E
100
AcDbEntity
  8
0
  6
BYBLOCK
 62
0
100
AcDbBlockEnd
  0
BLOCK
  5
27F
100
AcDbEntity
  8
0
100
AcDbBlockBegin
 62
2
  6
CONTINUOUS
  2
*D7
 70
65
 10
0.0
 20
0.0
  3
*D7
  1

  0
MTEXT
  5
280
100
AcDbEntity
  8
0
100
AcDbMText
 62
5
  6
CONTINUOUS
  7
STANDARD
 71
2
 72
1
 10
35.3887536009
 20
474.8809201264
 30
0.0
 11
0.0
 21
1.0
 31
0.0
 44
0.9
  1
43
 40
6.25
 41
9.375
  0
LINE
  5
281
100
AcDbEntity
  8
0
100
AcDbLine
 62
2
  6
CONTINUOUS
 10
160.9512536009
 20
496.3809201264
 11
39.4512536009
 21
496.3809201264
  0
LINE
  5
282
100
AcDbEntity
  8
0
100
AcDbLine
 62
2
  6
CONTINUOUS
 10
165.4751469401
 20
453.3809201264
 11
39.4512536009
 21
453.3809201264
  0
LINE
  5
283
100
AcDbEntity
  8
0
100
AcDbLine
 62
2
  6
CONTINUOUS
 10
43.2012536009
 20
496.3809201264
 11
43.2012536009
 21
474.8809201264
  0
LINE
  5
284
100
AcDbEntity
  8
0
100
AcDbLine
 62
2
  6
CONTINUOUS
 10
43.2012536009
 20
453.3809201264
 11
43.2012536009
 21
474.8809201264
  0
INSERT
  5
285
100
AcDbEntity
  8
0
100
AcDbBlockReference
 62
2
  6
CONTINUOUS
  2
_FILLED
 10
43.2012536009
 20
496.3809201264
 41
8.75
 42
8.75
 43
8.75
 50
90.0
  0
INSERT
  5
286
100
AcDbEntity
  8
0
100
AcDbBlockReference
 62
2
  6
CONTINUOUS
  2
_FILLED
 10
43.2012536009
 20
453.3809201264
 41
8.75
 42
8.75
 43
8.75
 50
270.0
  0
ENDBLK
  5
287
100
AcDbEntity
  8
0
  6
BYBLOCK
 62
0
100
AcDbBlockEnd
  0
BLOCK
  5
288
100
AcDbEntity
  8
0
100
AcDbBlockBegin
 62
2
  6
CONTINUOUS
  2
*D8
 70
65
 10
0.0
 20
0.0
  3
*D8
  1

  0
MTEXT
  5
289
100
AcDbEntity
  8
0
100
AcDbMText
 62
5
  6
CONTINUOUS
  7
STANDARD
 71
2
 72
1
 10
633.8959315248
 20
586.1934201264
 30
0.0
 11
1.0
 21
0.0
 31
0.0
 44
0.9
  1
70
 40
6.25
 41
9.8214285714
  0
LINE
  5
28A
100
AcDbEntity
  8
0
100
AcDbLine
 62
2
  6
CONTINUOUS
 10
598.8959315248
 20
497.6309201264
 11
598.8959315248
 21
582.1309201264
  0
LINE
  5
28B
100
AcDbEntity
  8
0
100
AcDbLine
 62
2
  6
CONTINUOUS
 10
668.8959315248
 20
497.6309201264
 11
668.8959315248
 21
582.1309201264
  0
LINE
  5
28C
100
AcDbEntity
  8
0
100
AcDbLine
 62
2
  6
CONTINUOUS
 10
598.8959315248
 20
578.3809201264
 11
633.8959315248
 21
578.3809201264
  0
LINE
  5
28D
100
AcDbEntity
  8
0
100
AcDbLine
 62
2
  6
CONTINUOUS
 10
668.8959315248
 20
578.3809201264
 11
633.8959315248
 21
578.3809201264
  0
INSERT
  5
28E
100
AcDbEntity
  8
0
100
AcDbBlockReference
 62
2
  6
CONTINUOUS
  2
_FILLED
 10
598.8959315248
 20
578.3809201264
 41
8.75
 42
8.75
 43
8.75
 50
180.0
  0
INSERT
  5
28F
100
AcDbEntity
  8
0
100
AcDbBlockReference
 62
2
  6
CONTINUOUS
  2
_FILLED
 10
668.8959315248
 20
578.3809201264
 41
8.75
 42
8.75
 43
8.75
  0
ENDBLK
  5
290
100
AcDbEntity
  8
0
  6
BYBLOCK
 62
0
100
AcDbBlockEnd
  0
BLOCK
  5
291
100
AcDbEntity
  8
0
100
AcDbBlockBegin
 62
2
  6
CONTINUOUS
  2
*D9
 70
65
 10
0.0
 20
0.0
  3
*D9
  1

  0
MTEXT
  5
292
100
AcDbEntity
  8
0
100
AcDbMText
 62
5
  6
CONTINUOUS
  7
STANDARD
 71
1
 72
1
 10
704.8959315248
 20
601.1934201264
 30
0.0
 11
1.0
 21
0.0
 31
0.0
 44
0.9
  1
6
 40
6.25
 41
4.9107142857
  0
LINE
  5
293
100
AcDbEntity
  8
0
100
AcDbLine
 62
2
  6
CONTINUOUS
 10
674.8959315248
 20
494.6309201264
 11
674.8959315248
 21
597.1309201264
  0
LINE
  5
294
100
AcDbEntity
  8
0
100
AcDbLine
 62
2
  6
CONTINUOUS
 10
668.8959315248
 20
497.6309201264
 11
668.8959315248
 21
597.1309201264
  0
LINE
  5
295
100
AcDbEntity
  8
0
100
AcDbLine
 62
2
  6
CONTINUOUS
 10
674.8959315248
 20
593.3809201264
 11
709.8066458105
 21
593.3809201264
  0
LINE
  5
296
100
AcDbEntity
  8
0
100
AcDbLine
 62
2
  6
CONTINUOUS
 10
709.8066458105
 20
593.3809201264
 11
671.8959315248
 21
593.3809201264
  0
LINE
  5
297
100
AcDbEntity
  8
0
100
AcDbLine
 62
2
  6
CONTINUOUS
 10
668.8959315248
 20
593.3809201264
 11
653.8959315248
 21
593.3809201264
  0
LINE
  5
298
100
AcDbEntity
  8
0
100
AcDbLine
 62
2
  6
CONTINUOUS
 10
653.8959315248
 20
593.3809201264
 11
671.8959315248
 21
593.3809201264
  0
INSERT
  5
299
100
AcDbEntity
  8
0
100
AcDbBlockReference
 62
2
  6
CONTINUOUS
  2
_FILLED
 10
674.8959315248
 20
593.3809201264
 41
8.75
 42
8.75
 43
8.75
 50
180.0
  0
INSERT
  5
29A
100
AcDbEntity
  8
0
100
AcDbBlockReference
 62
2
  6
CONTINUOUS
  2
_FILLED
 10
668.8959315248
 20
593.3809201264
 41
8.75
 42
8.75
 43
8.75
  0
ENDBLK
  5
29B
100
AcDbEntity
  8
0
  6
BYBLOCK
 62
0
100
AcDbBlockEnd
  0
BLOCK
  5
29C
100
AcDbEntity
  8
0
100
AcDbBlockBegin
 62
2
  6
CONTINUOUS
  2
*D10
 70
65
 10
0.0
 20
0.0
  3
*D10
  1

  0
MTEXT
  5
29D
100
AcDbEntity
  8
0
100
AcDbMText
 62
5
  6
CONTINUOUS
  7
STANDARD
 71
2
 72
1
 10
168.2012536009
 20
601.1934201264
 30
0.0
 11
1.0
 21
0.0
 31
0.0
 44
0.9
  1
12
 40
6.25
 41
8.4821428571
  0
LINE
  5
29E
100
AcDbEntity
  8
0
100
AcDbLine
 62
2
  6
CONTINUOUS
 10
174.2012536009
 20
497.6309201264
 11
174.2012536009
 21
597.1309201264
  0
LINE
  5
29F
100
AcDbEntity
  8
0
100
AcDbLine
 62
2
  6
CONTINUOUS
 10
162.2012536009
 20
497.6309201264
 11
162.2012536009
 21
597.1309201264
  0
LINE
  5
2A0
100
AcDbEntity
  8
0
100
AcDbLine
 62
2
  6
CONTINUOUS
 10
174.2012536009
 20
593.3809201264
 11
189.2012536009
 21
593.3809201264
  0
LINE
  5
2A1
100
AcDbEntity
  8
0
100
AcDbLine
 62
2
  6
CONTINUOUS
 10
189.2012536009
 20
593.3809201264
 11
168.2012536009
 21
593.3809201264
  0
LINE
  5
2A2
100
AcDbEntity
  8
0
100
AcDbLine
 62
2
  6
CONTINUOUS
 10
162.2012536009
 20
593.3809201264
 11
147.2012536009
 21
593.3809201264
  0
LINE
  5
2A3
100
AcDbEntity
  8
0
100
AcDbLine
 62
2
  6
CONTINUOUS
 10
147.2012536009
 20
593.3809201264
 11
168.2012536009
 21
593.3809201264
  0
INSERT
  5
2A4
100
AcDbEntity
  8
0
100
AcDbBlockReference
 62
2
  6
CONTINUOUS
  2
_FILLED
 10
174.2012536009
 20
593.3809201264
 41
8.75
 42
8.75
 43
8.75
 50
180.0
  0
INSERT
  5
2A5
100
AcDbEntity
  8
0
100
AcDbBlockReference
 62
2
  6
CONTINUOUS
  2
_FILLED
 10
162.2012536009
 20
593.3809201264
 41
8.75
 42
8.75
 43
8.75
  0
ENDBLK
  5
2A6
100
AcDbEntity
  8
0
  6
BYBLOCK
 62
0
100
AcDbBlockEnd
  0
BLOCK
  5
2A7
100
AcDbEntity
  8
0
100
AcDbBlockBegin
 62
2
  6
CONTINUOUS
  2
*D11
 70
65
 10
0.0
 20
0.0
  3
*D11
  1

  0
MTEXT
  5
2A8
100
AcDbEntity
  8
0
100
AcDbMText
 62
5
  6
CONTINUOUS
  7
TEXTSTYLE_2
 71
3
 72
1
 10
321.5834315248
 20
443.961704714
 30
0.0
 11
0.0
 21
1.0
 31
0.0
 44
0.9
  1
{\Fgdt;n}\Ftxt;35
 40
6.25
 41
17.2619047619
  0
LINE
  5
2A9
100
AcDbEntity
  8
0
100
AcDbLine
 62
2
  6
CONTINUOUS
 10
400.6459315248
 20
455.8809201264
 11
325.6459315248
 21
455.8809201264
  0
LINE
  5
2AA
100
AcDbEntity
  8
0
100
AcDbLine
 62
2
  6
CONTINUOUS
 10
400.6459315248
 20
490.8809201264
 11
325.6459315248
 21
490.8809201264
  0
LINE
  5
2AB
100
AcDbEntity
  8
0
100
AcDbLine
 62
2
  6
CONTINUOUS
 10
329.3959315248
 20
455.8809201264
 11
329.3959315248
 21
426.699799952
  0
LINE
  5
2AC
100
AcDbEntity
  8
0
100
AcDbLine
 62
2
  6
CONTINUOUS
 10
329.3959315248
 20
426.699799952
 11
329.3959315248
 21
473.3809201264
  0
LINE
  5
2AD
100
AcDbEntity
  8
0
100
AcDbLine
 62
2
  6
CONTINUOUS
 10
329.3959315248
 20
490.8809201264
 11
329.3959315248
 21
505.8809201264
  0
LINE
  5
2AE
100
AcDbEntity
  8
0
100
AcDbLine
 62
2
  6
CONTINUOUS
 10
329.3959315248
 20
505.8809201264
 11
329.3959315248
 21
473.3809201264
  0
INSERT
  5
2AF
100
AcDbEntity
  8
0
100
AcDbBlockReference
 62
2
  6
CONTINUOUS
  2
_FILLED
 10
329.3959315248
 20
455.8809201264
 41
8.75
 42
8.75
 43
8.75
 50
90.0
  0
INSERT
  5
2B0
100
AcDbEntity
  8
0
100
AcDbBlockReference
 62
2
  6
CONTINUOUS
  2
_FILLED
 10
329.3959315248
 20
490.8809201264
 41
8.75
 42
8.75
 43
8.75
 50
270.0
  0
ENDBLK
  5
2B1
100
AcDbEntity
  8
0
  6
BYBLOCK
 62
0
100
AcDbBlockEnd
  0
BLOCK
  5
2B2
100
AcDbEntity
  8
0
100
AcDbBlockBegin
 62
2
  6
CONTINUOUS
  2
*D12
 70
65
 10
0.0
 20
0.0
  3
*D12
  1

  0
MTEXT
  5
2B3
100
AcDbEntity
  8
0
100
AcDbMText
 62
5
  6
CONTINUOUS
  7
STANDARD
 71
2
 72
1
 10
400.8959315248
 20
616.1934201264
 30
0.0
 11
1.0
 21
0.0
 31
0.0
 44
0.9
  1
63
 40
6.25
 41
9.375
  0
LINE
  5
2B4
100
AcDbEntity
  8
0
100
AcDbLine
 62
2
  6
CONTINUOUS
 10
432.3959315248
 20
564.6309201264
 11
432.3959315248
 21
612.1309201264
  0
LINE
  5
2B5
100
AcDbEntity
  8
0
100
AcDbLine
 62
2
  6
CONTINUOUS
 10
369.3959315248
 20
564.6309201264
 11
369.3959315248
 21
612.1309201264
  0
LINE
  5
2B6
100
AcDbEntity
  8
0
100
AcDbLine
 62
2
  6
CONTINUOUS
 10
432.3959315248
 20
608.3809201264
 11
400.8959315248
 21
608.3809201264
  0
LINE
  5
2B7
100
AcDbEntity
  8
0
100
AcDbLine
 62
2
  6
CONTINUOUS
 10
369.3959315248
 20
608.3809201264
 11
400.8959315248
 21
608.3809201264
  0
INSERT
  5
2B8
100
AcDbEntity
  8
0
100
AcDbBlockReference
 62
2
  6
CONTINUOUS
  2
_FILLED
 10
432.3959315248
 20
608.3809201264
 41
8.75
 42
8.75
 43
8.75
  0
INSERT
  5
2B9
100
AcDbEntity
  8
0
100
AcDbBlockReference
 62
2
  6
CONTINUOUS
  2
_FILLED
 10
369.3959315248
 20
608.3809201264
 41
8.75
 42
8.75
 43
8.75
 50
180.0
  0
ENDBLK
  5
2BA
100
AcDbEntity
  8
0
  6
BYBLOCK
 62
0
100
AcDbBlockEnd
  0
BLOCK
  5
2BB
100
AcDbEntity
  8
0
100
AcDbBlockBegin
 62
2
  6
CONTINUOUS
  2
*D13
 70
65
 10
0.0
 20
0.0
  3
*D13
  1

  0
MTEXT
  5
2BC
100
AcDbEntity
  8
0
100
AcDbMText
 62
5
  6
CONTINUOUS
  7
TEXTSTYLE_2
 71
1
 72
1
 10
998.1244648781
 20
590.8967933407
 30
0.0
 11
0.7057614744
 21
0.7084495333
 31
0.0
 44
0.9
  1
{\Fgdt;n}\Ftxt;240
 40
6.25
 41
23.0654761905
  0
LINE
  5
2BD
100
AcDbEntity
  8
0
100
AcDbLine
 62
2
  6
CONTINUOUS
 10
976.7734599302
 20
558.3948641186
 11
892.0820829966
 21
473.3809201264
  0
LINE
  5
2BE
100
AcDbEntity
  8
0
100
AcDbLine
 62
2
  6
CONTINUOUS
 10
892.0820829966
 20
473.3809201264
 11
1019.9379513417
 21
601.7237576634
  0
LINE
  5
2BF
100
AcDbEntity
  8
0
100
AcDbLine
 62
2
  6
CONTINUOUS
 10
807.3907060631
 20
388.3669761343
 11
892.0820829966
 21
473.3809201264
  0
INSERT
  5
2C0
100
AcDbEntity
  8
0
100
AcDbBlockReference
 62
2
  6
CONTINUOUS
  2
_FILLED
 10
976.7734599302
 20
558.3948641186
 41
8.75
 42
8.75
 43
8.75
 50
45.1089047103
  0
INSERT
  5
2C1
100
AcDbEntity
  8
0
100
AcDbBlockReference
 62
2
  6
CONTINUOUS
  2
_FILLED
 10
807.3907060631
 20
388.3669761343
 41
8.75
 42
8.75
 43
8.75
 50
225.1089047103
  0
ENDBLK
  5
2C2
100
AcDbEntity
  8
0
  6
BYBLOCK
 62
0
100
AcDbBlockEnd
  0
BLOCK
  5
2C3
100
AcDbEntity
  8
0
100
AcDbBlockBegin
 62
2
  6
CONTINUOUS
  2
*D14
 70
65
 10
0.0
 20
0.0
  3
*D14
  1

  0
MTEXT
  5
2C4
100
AcDbEntity
  8
0
100
AcDbMText
 62
5
  6
CONTINUOUS
  7
TEXTSTYLE_2
 71
2
 72
1
 10
892.0820829966
 20
636.1934201264
 30
0.0
 11
1.0
 21
0.0
 31
0.0
 44
0.9
  1
{\Fgdt;o}\Ftxt;180
 40
6.25
 41
21.9866071429
  0
LINE
  5
2C5
100
AcDbEntity
  8
0
100
AcDbLine
 62
2
  6
CONTINUOUS
 10
802.0820829966
 20
553.1575665903
 11
802.0820829966
 21
632.1309201264
  0
LINE
  5
2C6
100
AcDbEntity
  8
0
100
AcDbLine
 62
2
  6
CONTINUOUS
 10
982.0820829966
 20
553.1575665903
 11
982.0820829966
 21
632.1309201264
  0
LINE
  5
2C7
100
AcDbEntity
  8
0
100
AcDbLine
 62
2
  6
CONTINUOUS
 10
802.0820829966
 20
628.3809201264
 11
892.0820829966
 21
628.3809201264
  0
LINE
  5
2C8
100
AcDbEntity
  8
0
100
AcDbLine
 62
2
  6
CONTINUOUS
 10
982.0820829966
 20
628.3809201264
 11
892.0820829966
 21
628.3809201264
  0
INSERT
  5
2C9
100
AcDbEntity
  8
0
100
AcDbBlockReference
 62
2
  6
CONTINUOUS
  2
_FILLED
 10
802.0820829966
 20
628.3809201264
 41
8.75
 42
8.75
 43
8.75
 50
180.0
  0
INSERT
  5
2CA
100
AcDbEntity
  8
0
100
AcDbBlockReference
 62
2
  6
CONTINUOUS
  2
_FILLED
 10
982.0820829966
 20
628.3809201264
 41
8.75
 42
8.75
 43
8.75
  0
ENDBLK
  5
2CB
100
AcDbEntity
  8
0
  6
BYBLOCK
 62
0
100
AcDbBlockEnd
  0
BLOCK
  5
2CC
100
AcDbEntity
  8
0
100
AcDbBlockBegin
 62
2
  6
CONTINUOUS
  2
*D15
 70
65
 10
0.0
 20
0.0
  3
*D15
  1

  0
TEXT
  5
2CD
100
AcDbEntity
  8
0
100
AcDbText
 62
5
  6
CONTINUOUS
 10
308.7709315248
 20
452.3392534598
  7
TEXTSTYLE_2
 40
6.25
  1
n
 50
90.0
 41
1.0
 72
1
 11
308.7709315248
 21
456.5059201264
100
AcDbText
  0
TEXT
  5
2CE
100
AcDbEntity
  8
0
100
AcDbText
 62
5
  6
CONTINUOUS
 10
308.7709315248
 20
460.6725867931
  7
STANDARD
 40
6.25
  1
114.3
 50
90.0
 41
0.6428571429
 72
1
 11
308.7709315248
 21
470.7172296503
100
AcDbText
  0
TEXT
  5
2CF
100
AcDbEntity
  8
0
100
AcDbText
 62
5
  6
CONTINUOUS
 10
305.0209315248
 20
480.7618725074
  7
TEXTSTYLE_3
 40
3.75
  1
+0.05
 50
90.0
 41
0.7142857143
 72
1
 11
305.0209315248
 21
487.4583010788
100
AcDbText
  0
TEXT
  5
2D0
100
AcDbEntity
  8
0
100
AcDbText
 62
5
  6
CONTINUOUS
 10
310.0209315248
 20
480.7618725074
  7
TEXTSTYLE_3
 40
3.75
  1
+0.02
 50
90.0
 41
0.7285714286
 72
1
 11
310.0209315248
 21
487.5922296503
100
AcDbText
  0
LINE
  5
2D1
100
AcDbEntity
  8
0
100
AcDbLine
 62
2
  6
CONTINUOUS
 10
368.1459315248
 20
416.2309201264
 11
308.1459315248
 21
416.2309201264
  0
LINE
  5
2D2
100
AcDbEntity
  8
0
100
AcDbLine
 62
2
  6
CONTINUOUS
 10
368.1459315248
 20
530.5309201264
 11
308.1459315248
 21
530.5309201264
  0
LINE
  5
2D3
100
AcDbEntity
  8
0
100
AcDbLine
 62
2
  6
CONTINUOUS
 10
311.8959315248
 20
416.2309201264
 11
311.8959315248
 21
473.3809201264
  0
LINE
  5
2D4
100
AcDbEntity
  8
0
100
AcDbLine
 62
2
  6
CONTINUOUS
 10
311.8959315248
 20
530.5309201264
 11
311.8959315248
 21
473.3809201264
  0
INSERT
  5
2D5
100
AcDbEntity
  8
0
100
AcDbBlockReference
 62
2
  6
CONTINUOUS
  2
_FILLED
 10
311.8959315248
 20
416.2309201264
 41
8.75
 42
8.75
 43
8.75
 50
270.0
  0
INSERT
  5
2D6
100
AcDbEntity
  8
0
100
AcDbBlockReference
 62
2
  6
CONTINUOUS
  2
_FILLED
 10
311.8959315248
 20
530.5309201264
 41
8.75
 42
8.75
 43
8.75
 50
90.0
  0
ENDBLK
  5
2D7
100
AcDbEntity
  8
0
  6
BYBLOCK
 62
0
100
AcDbBlockEnd
  0
BLOCK
  5
2D8
100
AcDbEntity
  8
0
100
AcDbBlockBegin
 62
2
  6
CONTINUOUS
  2
*D16
 70
65
 10
0.0
 20
0.0
  3
*D16
  1

  0
MTEXT
  5
2D9
100
AcDbEntity
  8
0
100
AcDbMText
 62
5
  6
CONTINUOUS
  7
STANDARD
 71
3
 72
1
 10
353.8152033877
 20
361.1934201264
 30
0.0
 11
1.0
 21
0.0
 31
0.0
 44
0.9
  1
5.4
 40
6.25
 41
12.9464285714
  0
LINE
  5
2DA
100
AcDbEntity
  8
0
100
AcDbLine
 62
2
  6
CONTINUOUS
 10
369.3959315248
 20
382.1309201264
 11
369.3959315248
 21
349.6309201264
  0
LINE
  5
2DB
100
AcDbEntity
  8
0
100
AcDbLine
 62
2
  6
CONTINUOUS
 10
374.7959315248
 20
382.1309201264
 11
374.7959315248
 21
349.6309201264
  0
LINE
  5
2DC
100
AcDbEntity
  8
0
100
AcDbLine
 62
2
  6
CONTINUOUS
 10
369.3959315248
 20
353.3809201264
 11
340.8687748163
 21
353.3809201264
  0
LINE
  5
2DD
100
AcDbEntity
  8
0
100
AcDbLine
 62
2
  6
CONTINUOUS
 10
340.8687748163
 20
353.3809201264
 11
372.0959315248
 21
353.3809201264
  0
LINE
  5
2DE
100
AcDbEntity
  8
0
100
AcDbLine
 62
2
  6
CONTINUOUS
 10
374.7959315248
 20
353.3809201264
 11
389.7959315248
 21
353.3809201264
  0
LINE
  5
2DF
100
AcDbEntity
  8
0
100
AcDbLine
 62
2
  6
CONTINUOUS
 10
389.7959315248
 20
353.3809201264
 11
372.0959315248
 21
353.3809201264
  0
INSERT
  5
2E0
100
AcDbEntity
  8
0
100
AcDbBlockReference
 62
2
  6
CONTINUOUS
  2
_FILLED
 10
369.3959315248
 20
353.3809201264
 41
8.75
 42
8.75
 43
8.75
  0
INSERT
  5
2E1
100
AcDbEntity
  8
0
100
AcDbBlockReference
 62
2
  6
CONTINUOUS
  2
_FILLED
 10
374.7959315248
 20
353.3809201264
 41
8.75
 42
8.75
 43
8.75
 50
180.0
  0
ENDBLK
  5
2E2
100
AcDbEntity
  8
0
  6
BYBLOCK
 62
0
100
AcDbBlockEnd
  0
BLOCK
  5
2E3
100
AcDbEntity
  8
0
100
AcDbBlockBegin
 62
2
  6
CONTINUOUS
  2
*D17
 70
65
 10
0.0
 20
0.0
  3
*D17
  1

  0
MTEXT
  5
2E4
100
AcDbEntity
  8
0
100
AcDbMText
 62
5
  6
CONTINUOUS
  7
STANDARD
 71
3
 72
1
 10
791.4156782796
 20
549.881313051
 30
0.0
 11
0.8320502943
 21
-0.5547001962
 31
0.0
 44
0.9
  1
     \Fgdt;{\Fgdt;n}\Ftxt;200
 40
6.25
 41
47.619047619
  0
LINE
  5
2E5
100
AcDbEntity
  8
0
100
AcDbLine
 62
2
  6
CONTINUOUS
 10
808.8770535628
 20
528.850939749
 11
892.0820829966
 21
473.3809201264
  0
LINE
  5
2E6
100
AcDbEntity
  8
0
100
AcDbLine
 62
2
  6
CONTINUOUS
 10
892.0820829966
 20
473.3809201264
 11
747.4606404091
 21
569.7952151848
  0
LINE
  5
2E7
100
AcDbEntity
  8
0
100
AcDbLine
 62
2
  6
CONTINUOUS
 10
975.2871124304
 20
417.9109005039
 11
892.0820829966
 21
473.3809201264
  0
INSERT
  5
2E8
100
AcDbEntity
  8
0
100
AcDbBlockReference
 62
2
  6
CONTINUOUS
  2
_FILLED
 10
808.8770535628
 20
528.850939749
 41
8.75
 42
8.75
 43
8.75
 50
146.309932474
  0
INSERT
  5
2E9
100
AcDbEntity
  8
0
100
AcDbBlockReference
 62
2
  6
CONTINUOUS
  2
_FILLED
 10
975.2871124304
 20
417.9109005039
 41
8.75
 42
8.75
 43
8.75
 50
326.309932474
  0
ENDBLK
  5
2EA
100
AcDbEntity
  8
0
  6
BYBLOCK
 62
0
100
AcDbBlockEnd
  0
BLOCK
  5
2EB
100
AcDbEntity
  8
0
100
AcDbBlockBegin
 62
2
  6
CONTINUOUS
  2
*D18
 70
65
 10
0.0
 20
0.0
  3
*D18
  1

  0
MTEXT
  5
2EC
100
AcDbEntity
  8
0
100
AcDbMText
 62
5
  6
CONTINUOUS
  7
STANDARD
 71
1
 72
1
 10
835.2533145452
 20
606.1934201264
 30
0.0
 11
1.0
 21
0.0
 31
0.0
 44
0.9
  1
M12        
 40
6.25
 41
53.125
  0
LINE
  5
2ED
100
AcDbEntity
  8
0
100
AcDbLine
 62
2
  6
CONTINUOUS
 10
827.3903801796
 20
544.1915982451
 11
827.3981488514
 21
602.1319733843
  0
LINE
  5
2EE
100
AcDbEntity
  8
0
100
AcDbLine
 62
2
  6
CONTINUOUS
 10
815.3903800717
 20
544.1915982451
 11
815.3981489592
 21
602.1335823498
  0
LINE
  5
2EF
100
AcDbEntity
  8
0
100
AcDbLine
 62
2
  6
CONTINUOUS
 10
827.3976460497
 20
598.381973418
 11
888.3783145452
 21
598.3809201264
  0
LINE
  5
2F0
100
AcDbEntity
  8
0
100
AcDbLine
 62
2
  6
CONTINUOUS
 10
888.3783145452
 20
598.3809201264
 11
821.3976461036
 21
598.3827779008
  0
LINE
  5
2F1
100
AcDbEntity
  8
0
100
AcDbLine
 62
2
  6
CONTINUOUS
 10
815.3976461575
 20
598.3835823835
 11
800.3976462924
 21
598.3855935903
  0
LINE
  5
2F2
100
AcDbEntity
  8
0
100
AcDbLine
 62
2
  6
CONTINUOUS
 10
800.3976462924
 20
598.3855935903
 11
821.3976461036
 21
598.3827779008
  0
INSERT
  5
2F3
100
AcDbEntity
  8
0
100
AcDbBlockReference
 62
2
  6
CONTINUOUS
  2
_FILLED
 10
827.3976460497
 20
598.381973418
 41
8.75
 42
8.75
 43
8.75
 50
179.9990103558
  0
INSERT
  5
2F4
100
AcDbEntity
  8
0
100
AcDbBlockReference
 62
2
  6
CONTINUOUS
  2
_FILLED
 10
815.3976461575
 20
598.3835823835
 41
8.75
 42
8.75
 43
8.75
 50
359.9923177559
  0
ENDBLK
  5
2F5
100
AcDbEntity
  8
0
  6
BYBLOCK
 62
0
100
AcDbBlockEnd
  0
BLOCK
  5
2F6
100
AcDbEntity
  8
0
100
AcDbBlockBegin
 62
2
  6
CONTINUOUS
  2
*D19
 70
65
 10
0.0
 20
0.0
  3
*D19
  1

  0
MTEXT
  5
2F7
100
AcDbEntity
  8
0
100
AcDbMText
 62
5
  6
CONTINUOUS
  7
STANDARD
 71
1
 72
1
 10
643.8191207138
 20
408.6012393316
 30
0.0
 11
0.6682008583
 21
-0.7439809225
 31
0.0
 44
0.9
  1
R2
 40
6.25
 41
9.8214285714
  0
LINE
  5
2F8
100
AcDbEntity
  8
0
100
AcDbLine
 62
2
  6
CONTINUOUS
 10
593.5595298082
 20
452.8688819714
 11
644.5694567578
 21
396.0739646378
  0
INSERT
  5
2F9
100
AcDbEntity
  8
0
100
AcDbBlockReference
 62
2
  6
CONTINUOUS
  2
_FILLED
 10
593.5595298082
 20
452.8688819714
 41
8.75
 42
8.75
 43
8.75
 50
131.928357592
  0
ENDBLK
  5
2FA
100
AcDbEntity
  8
0
  6
BYBLOCK
 62
0
100
AcDbBlockEnd
  0
BLOCK
  5
2FB
100
AcDbEntity
  8
0
100
AcDbBlockBegin
 62
2
  6
CONTINUOUS
  2
*D20
 70
65
 10
0.0
 20
0.0
  3
*D20
  1

  0
MTEXT
  5
2FC
100
AcDbEntity
  8
0
100
AcDbMText
 62
5
  6
CONTINUOUS
  7
TEXTSTYLE_2
 71
2
 72
1
 10
536.8663935686
 20
433.3963083849
 30
0.0
 11
0.0
 21
1.0
 31
0.0
 44
0.9
  1
{\Fgdt;n}\Ftxt;155
 40
6.25
 41
20.8333333333
  0
LINE
  5
2FD
100
AcDbEntity
  8
0
100
AcDbLine
 62
2
  6
CONTINUOUS
 10
537.1788935686
 20
395.8809201264
 11
548.4288935686
 21
395.8809201264
  0
LINE
  5
2FE
100
AcDbEntity
  8
0
100
AcDbLine
 62
2
  6
CONTINUOUS
 10
537.1788935686
 20
550.8809201264
 11
548.4288935686
 21
550.8809201264
  0
LINE
  5
2FF
100
AcDbEntity
  8
0
100
AcDbLine
 62
2
  6
CONTINUOUS
 10
544.6788935686
 20
395.8809201264
 11
544.6788935686
 21
473.3809201264
  0
LINE
  5
300
100
AcDbEntity
  8
0
100
AcDbLine
 62
2
  6
CONTINUOUS
 10
544.6788935686
 20
550.8809201264
 11
544.6788935686
 21
473.3809201264
  0
INSERT
  5
301
100
AcDbEntity
  8
0
100
AcDbBlockReference
 62
2
  6
CONTINUOUS
  2
_FILLED
 10
544.6788935686
 20
395.8809201264
 41
8.75
 42
8.75
 43
8.75
 50
270.0
  0
INSERT
  5
302
100
AcDbEntity
  8
0
100
AcDbBlockReference
 62
2
  6
CONTINUOUS
  2
_FILLED
 10
544.6788935686
 20
550.8809201264
 41
8.75
 42
8.75
 43
8.75
 50
90.0
  0
ENDBLK
  5
303
100
AcDbEntity
  8
0
  6
BYBLOCK
 62
0
100
AcDbBlockEnd
  0
BLOCK
  5
304
100
AcDbEntity
  8
0
100
AcDbBlockBegin
 62
2
  6
CONTINUOUS
  2
*D21
 70
65
 10
0.0
 20
0.0
  3
*D21
  1

  0
MTEXT
  5
305
100
AcDbEntity
  8
0
100
AcDbMText
 62
5
  6
CONTINUOUS
  7
STANDARD
 71
2
 72
1
 10
527.8959315248
 20
651.1934201264
 30
0.0
 11
1.0
 21
0.0
 31
0.0
 44
0.9
  1
100
 40
6.25
 41
13.3928571429
  0
LINE
  5
306
100
AcDbEntity
  8
0
100
AcDbLine
 62
2
  6
CONTINUOUS
 10
477.8959315248
 20
545.7124814054
 11
477.8959315248
 21
647.1309201264
  0
LINE
  5
307
100
AcDbEntity
  8
0
100
AcDbLine
 62
2
  6
CONTINUOUS
 10
577.8959315248
 20
552.1309201264
 11
577.8959315248
 21
647.1309201264
  0
LINE
  5
308
100
AcDbEntity
  8
0
100
AcDbLine
 62
2
  6
CONTINUOUS
 10
477.8959315248
 20
643.3809201264
 11
527.8959315248
 21
643.3809201264
  0
LINE
  5
309
100
AcDbEntity
  8
0
100
AcDbLine
 62
2
  6
CONTINUOUS
 10
577.8959315248
 20
643.3809201264
 11
527.8959315248
 21
643.3809201264
  0
INSERT
  5
30A
100
AcDbEntity
  8
0
100
AcDbBlockReference
 62
2
  6
CONTINUOUS
  2
_FILLED
 10
477.8959315248
 20
643.3809201264
 41
8.75
 42
8.75
 43
8.75
 50
180.0
  0
INSERT
  5
30B
100
AcDbEntity
  8
0
100
AcDbBlockReference
 62
2
  6
CONTINUOUS
  2
_FILLED
 10
577.8959315248
 20
643.3809201264
 41
8.75
 42
8.75
 43
8.75
  0
ENDBLK
  5
30C
100
AcDbEntity
  8
0
  6
BYBLOCK
 62
0
100
AcDbBlockEnd
  0
BLOCK
  5
30D
100
AcDbEntity
  8
0
100
AcDbBlockBegin
 62
2
  6
CONTINUOUS
  2
*D22
 70
65
 10
0.0
 20
0.0
  3
*D22
  1

  0
MTEXT
  5
30E
100
AcDbEntity
  8
0
100
AcDbMText
 62
5
  6
CONTINUOUS
  7
STANDARD
 71
1
 72
1
 10
600.7868992667
 20
363.6934201264
 30
0.0
 11
1.0
 21
0.0
 31
0.0
 44
0.9
  1
8
 40
6.25
 41
4.9107142857
  0
LINE
  5
30F
100
AcDbEntity
  8
0
100
AcDbLine
 62
2
  6
CONTINUOUS
 10
585.8959315248
 20
412.1309201264
 11
585.8959315248
 21
352.1309201264
  0
LINE
  5
310
100
AcDbEntity
  8
0
100
AcDbLine
 62
2
  6
CONTINUOUS
 10
577.8959315248
 20
412.1309201264
 11
577.8959315248
 21
352.1309201264
  0
LINE
  5
311
100
AcDbEntity
  8
0
100
AcDbLine
 62
2
  6
CONTINUOUS
 10
585.8959315248
 20
355.8809201264
 11
605.6976135524
 21
355.8809201264
  0
LINE
  5
312
100
AcDbEntity
  8
0
100
AcDbLine
 62
2
  6
CONTINUOUS
 10
605.6976135524
 20
355.8809201264
 11
581.8959315248
 21
355.8809201264
  0
LINE
  5
313
100
AcDbEntity
  8
0
100
AcDbLine
 62
2
  6
CONTINUOUS
 10
577.8959315248
 20
355.8809201264
 11
562.8959315248
 21
355.8809201264
  0
LINE
  5
314
100
AcDbEntity
  8
0
100
AcDbLine
 62
2
  6
CONTINUOUS
 10
562.8959315248
 20
355.8809201264
 11
581.8959315248
 21
355.8809201264
  0
INSERT
  5
315
100
AcDbEntity
  8
0
100
AcDbBlockReference
 62
2
  6
CONTINUOUS
  2
_FILLED
 10
585.8959315248
 20
355.8809201264
 41
8.75
 42
8.75
 43
8.75
 50
180.0
  0
INSERT
  5
316
100
AcDbEntity
  8
0
100
AcDbBlockReference
 62
2
  6
CONTINUOUS
  2
_FILLED
 10
577.8959315248
 20
355.8809201264
 41
8.75
 42
8.75
 43
8.75
  0
ENDBLK
  5
317
100
AcDbEntity
  8
0
  6
BYBLOCK
 62
0
100
AcDbBlockEnd
  0
BLOCK
  5
318
100
AcDbEntity
  8
0
100
AcDbBlockBegin
 62
2
  6
CONTINUOUS
  2
*D23
 70
65
 10
0.0
 20
0.0
  3
*D23
  1

  0
MTEXT
  5
319
100
AcDbEntity
  8
0
100
AcDbMText
 62
5
  6
CONTINUOUS
  7
TEXTSTYLE_2
 71
2
 72
1
 10
742.0834315248
 20
473.3809201264
 30
0.0
 11
0.0
 21
1.0
 31
0.0
 44
0.9
  1
{\Fgdt;n}\Ftxt;120
 40
6.25
 41
21.7261904762
  0
LINE
  5
31A
100
AcDbEntity
  8
0
100
AcDbLine
 62
2
  6
CONTINUOUS
 10
586.3959315248
 20
413.3809201264
 11
753.6459315248
 21
413.3809201264
  0
LINE
  5
31B
100
AcDbEntity
  8
0
100
AcDbLine
 62
2
  6
CONTINUOUS
 10
586.3913026717
 20
533.3809201264
 11
753.6459315248
 21
533.3809201264
  0
LINE
  5
31C
100
AcDbEntity
  8
0
100
AcDbLine
 62
2
  6
CONTINUOUS
 10
749.8959315248
 20
413.3809201264
 11
749.8959315248
 21
473.3809201264
  0
LINE
  5
31D
100
AcDbEntity
  8
0
100
AcDbLine
 62
2
  6
CONTINUOUS
 10
749.8959315248
 20
533.3809201264
 11
749.8959315248
 21
473.3809201264
  0
INSERT
  5
31E
100
AcDbEntity
  8
0
100
AcDbBlockReference
 62
2
  6
CONTINUOUS
  2
_FILLED
 10
749.8959315248
 20
413.3809201264
 41
8.75
 42
8.75
 43
8.75
 50
270.0
  0
INSERT
  5
31F
100
AcDbEntity
  8
0
100
AcDbBlockReference
 62
2
  6
CONTINUOUS
  2
_FILLED
 10
749.8959315248
 20
533.3809201264
 41
8.75
 42
8.75
 43
8.75
 50
90.0
  0
ENDBLK
  5
320
100
AcDbEntity
  8
0
  6
BYBLOCK
 62
0
100
AcDbBlockEnd
  0
BLOCK
  5
321
100
AcDbEntity
  8
0
100
AcDbBlockBegin
 62
2
  6
CONTINUOUS
  2
*D24
 70
65
 10
0.0
 20
0.0
  3
*D24
  1

  0
MTEXT
  5
322
100
AcDbEntity
  8
0
100
AcDbMText
 62
5
  6
CONTINUOUS
  7
STANDARD
 71
3
 72
1
 10
67.3102660123
 20
544.9570837531
 30
0.0
 11
0.8505132701
 21
-0.5259535887
 31
0.0
 44
0.9
  1
    \Fgdt;{\Fgdt;n}\Ftxt;140
 40
6.25
 41
41.369047619
  0
LINE
  5
323
100
AcDbEntity
  8
0
100
AcDbLine
 62
2
  6
CONTINUOUS
 10
108.6653246956
 20
510.1976713326
 11
168.2012536009
 21
473.3809201264
  0
LINE
  5
324
100
AcDbEntity
  8
0
100
AcDbLine
 62
2
  6
CONTINUOUS
 10
168.2012536009
 20
473.3809201264
 11
28.0163296305
 21
560.0706478853
  0
LINE
  5
325
100
AcDbEntity
  8
0
100
AcDbLine
 62
2
  6
CONTINUOUS
 10
227.7371825062
 20
436.5641689203
 11
168.2012536009
 21
473.3809201264
  0
INSERT
  5
326
100
AcDbEntity
  8
0
100
AcDbBlockReference
 62
2
  6
CONTINUOUS
  2
_FILLED
 10
108.6653246956
 20
510.1976713326
 41
8.75
 42
8.75
 43
8.75
 50
148.2675394189
  0
INSERT
  5
327
100
AcDbEntity
  8
0
100
AcDbBlockReference
 62
2
  6
CONTINUOUS
  2
_FILLED
 10
227.7371825062
 20
436.5641689203
 41
8.75
 42
8.75
 43
8.75
 50
328.2675394189
  0
ENDBLK
  5
328
100
AcDbEntity
  8
0
  6
BYBLOCK
 62
0
100
AcDbBlockEnd
  0
BLOCK
  5
329
100
AcDbEntity
  8
0
100
AcDbBlockBegin
 62
2
  6
CONTINUOUS
  2
*D25
 70
65
 10
0.0
 20
0.0
  3
*D25
  1

  0
MTEXT
  5
32A
100
AcDbEntity
  8
0
100
AcDbMText
 62
5
  6
CONTINUOUS
  7
STANDARD
 71
3
 72
1
 10
165.4644371329
 20
358.6934127856
 30
0.0
 11
0.9999990604
 21
0.0013708553
 31
0.0
 44
0.9
  1
M10
 40
6.25
 41
13.8392857143
  0
LINE
  5
32B
100
AcDbEntity
  8
0
100
AcDbLine
 62
2
  6
CONTINUOUS
 10
233.2063990064
 20
469.6240693735
 11
233.3741919545
 21
347.223996457
  0
LINE
  5
32C
100
AcDbEntity
  8
0
100
AcDbLine
 62
2
  6
CONTINUOUS
 10
243.2063896102
 20
469.6377779266
 11
243.3741825583
 21
347.2377050101
  0
LINE
  5
32D
100
AcDbEntity
  8
0
100
AcDbLine
 62
2
  6
CONTINUOUS
 10
233.3690512471
 20
350.9739929334
 11
151.6358742295
 21
350.8619484681
  0
LINE
  5
32E
100
AcDbEntity
  8
0
100
AcDbLine
 62
2
  6
CONTINUOUS
 10
151.6358742295
 20
350.8619484681
 11
238.369046549
 21
350.98084721
  0
LINE
  5
32F
100
AcDbEntity
  8
0
100
AcDbLine
 62
2
  6
CONTINUOUS
 10
243.3690418508
 20
350.9877014865
 11
258.3690277565
 21
351.0082643163
  0
LINE
  5
330
100
AcDbEntity
  8
0
100
AcDbLine
 62
2
  6
CONTINUOUS
 10
258.3690277565
 20
351.0082643163
 11
238.369046549
 21
350.98084721
  0
INSERT
  5
331
100
AcDbEntity
  8
0
100
AcDbBlockReference
 62
2
  6
CONTINUOUS
  2
_FILLED
 10
233.3690512471
 20
350.9739929334
 41
8.75
 42
8.75
 43
8.75
 50
0.0785442484
  0
INSERT
  5
332
100
AcDbEntity
  8
0
100
AcDbBlockReference
 62
2
  6
CONTINUOUS
  2
_FILLED
 10
243.3690418508
 20
350.9877014865
 41
8.75
 42
8.75
 43
8.75
 50
180.0785442484
  0
ENDBLK
  5
333
100
AcDbEntity
  8
0
  6
BYBLOCK
 62
0
100
AcDbBlockEnd
  0
BLOCK
  5
334
100
AcDbEntity
  8
0
100
AcDbBlockBegin
 62
2
  6
CONTINUOUS
  2
*D26
 70
65
 10
0.0
 20
0.0
  3
*D26
  1

  0
MTEXT
  5
335
100
AcDbEntity
  8
0
100
AcDbMText
 62
5
  6
CONTINUOUS
  7
STANDARD
 71
1
 72
1
 10
600.5903743433
 20
395.984496577
 30
0.0
 11
0.3898256503
 21
-0.9208886808
 31
0.0
 44
0.9
  1
R2
 40
6.25
 41
9.8214285714
  0
LINE
  5
336
100
AcDbEntity
  8
0
100
AcDbLine
 62
2
  6
CONTINUOUS
 10
584.6755828253
 20
413.5391427649
 11
597.2245763044
 21
383.8945412837
  0
INSERT
  5
337
100
AcDbEntity
  8
0
100
AcDbBlockReference
 62
2
  6
CONTINUOUS
  2
_FILLED
 10
584.6755828253
 20
413.5391427649
 41
8.75
 42
8.75
 43
8.75
 50
112.94365129
  0
ENDBLK
  5
338
100
AcDbEntity
  8
0
  6
BYBLOCK
 62
0
100
AcDbBlockEnd
  0
ENDSEC
  0
SECTION
  2
ENTITIES
  0
DIMENSION
  5
339
100
AcDbEntity
  8
ZEICHNUNGSBEMASSUNGEN
100
AcDbDimension
 62
2
  6
CONTINUOUS
  2
*D0
 10
674.8959315248
 20
668.3809201264
 11
511.2084315248
 21
673.0684201264
 70
160
 71
2
 42
305.5
  3
DIMSTYLE_1
100
AcDbAlignedDimension
 13
369.3959315248
 23
564.6309201264
 14
674.8959315248
 24
494.6309201264
100
AcDbRotatedDimension
  0
DIMENSION
  5
33A
100
AcDbEntity
  8
ZEICHNUNGSBEMASSUNGEN
100
AcDbDimension
 62
2
  6
CONTINUOUS
  2
*D1
 10
449.3959315248
 20
333.3809201264
 11
404.485217239
 21
338.0684201264
 70
160
 71
2
 42
80.0
  3
DIMSTYLE_2
100
AcDbAlignedDimension
 13
369.3959315248
 23
382.1309201264
 14
449.3959315248
 24
454.6309201264
100
AcDbRotatedDimension
  0
DIMENSION
  5
33B
100
AcDbEntity
  8
ZEICHNUNGSBEMASSUNGEN
100
AcDbDimension
 62
2
  6
CONTINUOUS
  2
*D2
 10
477.8959315248
 20
643.3809201264
 11
412.9316458105
 21
648.0684201264
 70
160
 71
2
 42
108.5
  3
DIMSTYLE_2
100
AcDbAlignedDimension
 13
369.3959315248
 23
580.8809201264
 14
477.8959315248
 24
545.2532038439
100
AcDbRotatedDimension
  0
DIMENSION
  5
33C
100
AcDbEntity
  8
ZEICHNUNGSBEMASSUNGEN
100
AcDbDimension
 62
2
  6
CONTINUOUS
  2
*D3
 10
674.8959315248
 20
643.3809201264
 11
621.485217239
 21
648.0684201264
 70
160
 71
2
 42
97.0
  3
DIMSTYLE_2
100
AcDbAlignedDimension
 13
577.8959315248
 23
552.1309201264
 14
674.8959315248
 24
496.1309201264
100
AcDbRotatedDimension
  0
DIMENSION
  5
33D
100
AcDbEntity
  8
0
100
AcDbDimension
 62
2
  6
CONTINUOUS
  2
*D4
 10
704.8959315248
 20
453.3809201264
 11
704.2757664331
 21
365.1883908884
 70
160
 71
3
 42
40.0
  1
%%c<>
  3
DIMSTYLE_3
100
AcDbAlignedDimension
 13
676.1459315248
 23
493.3809201264
 14
676.1459315248
 24
453.3809201264
 50
270.0
100
AcDbRotatedDimension
  0
DIMENSION
  5
33E
100
AcDbEntity
  8
0
100
AcDbDimension
 62
2
  6
CONTINUOUS
  2
*D5
 10
592.8959315248
 20
608.3809201264
 11
628.985217239
 21
613.0684201264
 70
160
 71
2
 42
82.0
  3
DIMSTYLE_2
100
AcDbAlignedDimension
 13
674.8959315248
 23
494.6309201264
 14
592.8959315248
 24
502.1309201264
 50
180.0
100
AcDbRotatedDimension
  0
DIMENSION
  5
33F
100
AcDbEntity
  8
0
100
AcDbDimension
 62
2
  6
CONTINUOUS
  2
*D6
 10
727.3959315248
 20
445.8809201264
 11
724.6420825467
 21
469.5228988103
 70
160
 71
2
 42
55.0
  1
%%c<>
  3
DIMSTYLE_2
100
AcDbAlignedDimension
 13
594.1459315248
 23
500.8809201264
 14
594.1459315248
 24
445.8809201264
 50
270.0
100
AcDbRotatedDimension
  0
DIMENSION
  5
340
100
AcDbEntity
  8
0
100
AcDbDimension
 62
2
  6
CONTINUOUS
  2
*D7
 10
43.2012536009
 20
453.3809201264
 11
40.6140986765
 21
470.6903107658
 70
160
 71
2
 42
43.0
  3
DIMSTYLE_2
100
AcDbAlignedDimension
 13
160.9512536009
 23
496.3809201264
 14
165.4751469401
 24
453.3809201264
 50
270.0
100
AcDbRotatedDimension
  0
DIMENSION
  5
341
100
AcDbEntity
  8
0
100
AcDbDimension
 62
2
  6
CONTINUOUS
  2
*D8
 10
668.8959315248
 20
578.3809201264
 11
628.985217239
 21
583.0684201264
 70
160
 71
2
 42
70.0
  3
DIMSTYLE_2
100
AcDbAlignedDimension
 13
598.8959315248
 23
497.6309201264
 14
668.8959315248
 24
497.6309201264
100
AcDbRotatedDimension
  0
DIMENSION
  5
342
100
AcDbEntity
  8
0
100
AcDbDimension
 62
2
  6
CONTINUOUS
  2
*D9
 10
668.8959315248
 20
593.3809201264
 11
707.3512886676
 21
598.0684201264
 70
160
 71
1
 42
6.0
  3
DIMSTYLE_4
100
AcDbAlignedDimension
 13
674.8959315248
 23
494.6309201264
 14
668.8959315248
 24
497.6309201264
 50
180.0
100
AcDbRotatedDimension
  0
DIMENSION
  5
343
100
AcDbEntity
  8
0
100
AcDbDimension
 62
2
  6
CONTINUOUS
  2
*D10
 10
162.2012536009
 20
593.3809201264
 11
163.9601821723
 21
598.0684201264
 70
160
 71
2
 42
12.0
  3
DIMSTYLE_5
100
AcDbAlignedDimension
 13
174.2012536009
 23
497.6309201264
 14
162.2012536009
 24
497.6309201264
 50
180.0
100
AcDbRotatedDimension
  0
DIMENSION
  5
344
100
AcDbEntity
  8
0
100
AcDbDimension
 62
2
  6
CONTINUOUS
  2
*D11
 10
329.3959315248
 20
490.8809201264
 11
328.5757335687
 21
427.6147097007
 70
160
 71
3
 42
35.0
  1
%%c<>
  3
DIMSTYLE_2
100
AcDbAlignedDimension
 13
400.6459315248
 23
455.8809201264
 14
400.6459315248
 24
490.8809201264
 50
90.0
100
AcDbRotatedDimension
  0
DIMENSION
  5
345
100
AcDbEntity
  8
0
100
AcDbDimension
 62
2
  6
CONTINUOUS
  2
*D12
 10
369.3959315248
 20
608.3809201264
 11
396.2084315248
 21
613.0684201264
 70
160
 71
2
 42
63.0
  3
DIMSTYLE_2
100
AcDbAlignedDimension
 13
432.3959315248
 23
564.6309201264
 14
369.3959315248
 24
564.6309201264
 50
180.0
100
AcDbRotatedDimension
  0
DIMENSION
  5
346
100
AcDbEntity
  8
0
100
AcDbDimension
 62
2
  6
CONTINUOUS
  2
*D13
 10
976.7734599302
 20
558.3948641186
 11
1008.477731912
 21
596.8616516539
 70
163
 71
1
 42
240.0
  1
<>
  3
DIMSTYLE_6
100
AcDbDiametricDimension
 15
807.3907060631
 25
388.3669761343
  0
DIMENSION
  5
347
100
AcDbEntity
  8
0
100
AcDbDimension
 62
2
  6
CONTINUOUS
  2
*D14
 10
982.0820829966
 20
628.3809201264
 11
886.5854312109
 21
633.0684201264
 70
160
 71
2
 42
180.0
  1
{\Fgdt;o}<>
  3
DIMSTYLE_1
100
AcDbAlignedDimension
 13
802.0820829966
 23
553.1575665903
 14
982.0820829966
 24
553.1575665903
100
AcDbRotatedDimension
  0
DIMENSION
  5
348
100
AcDbEntity
  8
0
100
AcDbDimension
 62
2
  6
CONTINUOUS
  2
*D15
 10
311.8959315248
 20
530.5309201264
 11
308.7715477312
 21
468.4652688288
 70
160
 71
2
 42
114.3
  1
%%c<>
  3
DIMSTYLE_7
100
AcDbAlignedDimension
 13
368.1459315248
 23
416.2309201264
 14
368.1459315248
 24
530.5309201264
 50
90.0
100
AcDbRotatedDimension
  0
DIMENSION
  5
349
100
AcDbEntity
  8
0
100
AcDbDimension
 62
2
  6
CONTINUOUS
  2
*D16
 10
374.7959315248
 20
353.3809201264
 11
334.3955605305
 21
358.0684201264
 70
160
 71
3
 42
5.4
  3
DIMSTYLE_4
100
AcDbAlignedDimension
 13
369.3959315248
 23
382.1309201264
 14
374.7959315248
 24
382.1309201264
100
AcDbRotatedDimension
  0
DIMENSION
  5
34A
100
AcDbEntity
  8
0
100
AcDbDimension
 62
2
  6
CONTINUOUS
  2
*D17
 10
808.8770535628
 20
528.850939749
 11
787.5454766453
 21
562.6030753292
 70
163
 71
3
 42
200.0
  1
     <>
  3
DIMSTYLE_6
100
AcDbDiametricDimension
 15
975.2871124304
 25
417.9109005039
  0
DIMENSION
  5
34B
100
AcDbEntity
  8
0
100
AcDbDimension
 62
2
  6
CONTINUOUS
  2
*D18
 10
815.3976461575
 20
598.3835823835
 11
842.1729574024
 21
603.0684201264
 70
160
 71
1
 42
12.0
  1
M<>        
  3
DIMSTYLE_5
100
AcDbAlignedDimension
 13
827.3903801796
 23
544.1915982451
 14
815.3903800717
 24
544.1915982451
 50
179.9923177559
100
AcDbRotatedDimension
  0
DIMENSION
  5
34C
100
AcDbEntity
  8
0
100
AcDbDimension
 62
2
  6
CONTINUOUS
  2
*D19
 10
594.8959315248
 20
451.3809201264
 11
644.7755238315
 21
402.8596339053
 70
164
 71
1
 42
2.0
  1
<>
  3
DIMSTYLE_8
100
AcDbRadialDimension
 15
593.5595298082
 25
452.8688819714
  0
DIMENSION
  5
34D
100
AcDbEntity
  8
0
100
AcDbDimension
 62
2
  6
CONTINUOUS
  2
*D20
 10
544.6788935686
 20
550.8809201264
 11
542.3251103193
 21
428.740075762
 70
160
 71
2
 42
155.0
  1
%%c<>
  3
DIMSTYLE_1
100
AcDbAlignedDimension
 13
537.1788935686
 23
395.8809201264
 14
537.1788935686
 24
550.8809201264
 50
90.0
100
AcDbRotatedDimension
  0
DIMENSION
  5
34E
100
AcDbEntity
  8
0
100
AcDbDimension
 62
2
  6
CONTINUOUS
  2
*D21
 10
577.8959315248
 20
643.3809201264
 11
521.1995029533
 21
648.0684201264
 70
160
 71
2
 42
100.0
  3
DIMSTYLE_2
100
AcDbAlignedDimension
 13
477.8959315248
 23
545.7124814054
 14
577.8959315248
 24
552.1309201264
100
AcDbRotatedDimension
  0
DIMENSION
  5
34F
100
AcDbEntity
  8
0
100
AcDbDimension
 62
2
  6
CONTINUOUS
  2
*D22
 10
577.8959315248
 20
355.8809201264
 11
603.2422564096
 21
360.5684201264
 70
160
 71
1
 42
8.0
  3
DIMSTYLE_5
100
AcDbAlignedDimension
 13
585.8959315248
 23
412.1309201264
 14
577.8959315248
 24
412.1309201264
 50
180.0
100
AcDbRotatedDimension
  0
DIMENSION
  5
350
100
AcDbEntity
  8
0
100
AcDbDimension
 62
2
  6
CONTINUOUS
  2
*D23
 10
749.8959315248
 20
533.3809201264
 11
747.6421647076
 21
468.5251346768
 70
160
 71
2
 42
120.0
  1
%%c<>
  3
DIMSTYLE_2
100
AcDbAlignedDimension
 13
586.3959315248
 23
413.3809201264
 14
586.3913026717
 24
533.3809201264
 50
90.0
100
AcDbRotatedDimension
  0
DIMENSION
  5
351
100
AcDbEntity
  8
0
100
AcDbDimension
 62
2
  6
CONTINUOUS
  2
*D24
 10
108.6653246956
 20
510.1976713326
 11
46.1040378587
 21
551.3941201022
 70
163
 71
3
 42
140.0
  1
    <>
  3
DIMSTYLE_6
100
AcDbDiametricDimension
 15
227.7371825062
 25
436.5641689203
  0
DIMENSION
  5
352
100
AcDbEntity
  8
0
100
AcDbDimension
 62
2
  6
CONTINUOUS
  2
*D25
 10
243.3690418508
 20
350.9877014865
 11
151.6507751992
 21
355.0138484362
 70
160
 71
3
 42
10.0
  1
M<>
  3
DIMSTYLE_5
100
AcDbAlignedDimension
 13
233.2063990064
 23
469.6240693735
 14
243.2063896102
 24
469.6377779266
 50
0.0785442484
100
AcDbRotatedDimension
  0
DIMENSION
  5
353
100
AcDbEntity
  8
0
100
AcDbDimension
 62
2
  6
CONTINUOUS
  2
*D26
 10
583.8959315248
 20
415.3809201264
 11
599.6269196057
 21
390.2440702196
 70
164
 71
1
 42
2.0
  1
<>
  3
DIMSTYLE_8
100
AcDbRadialDimension
 15
584.6755828253
 25
413.5391427649
  0
MTEXT
  5
354
100
AcDbEntity
  8
0
100
AcDbMText
 62
5
  6
CONTINUOUS
  7
STANDARD
 71
1
 72
1
 10
319.9469567454
 20
491.3692623998
 30
0.0
 11
0.0
 21
1.0
 31
0.0
 44
0.9
  1
(for shaft diam. tol. j6/k6)
 40
6.25
 41
116.0714285714
  0
MTEXT
  5
355
100
AcDbEntity
  8
0
100
AcDbMText
 62
5
  6
CONTINUOUS
  7
STANDARD
 71
1
 72
1
 10
696.9764059209
 20
384.7020337457
 30
0.0
 11
0.0
 21
1.0
 31
0.0
 44
0.9
  1
k7
 40
6.25
 41
9.375
  0
MTEXT
  5
356
100
AcDbEntity
  8
0
100
AcDbMText
 62
5
  6
CONTINUOUS
  7
STANDARD
 71
1
 72
1
 10
741.752613648
 20
485.5472907238
 30
0.0
 11
0.0
 21
1.0
 31
0.0
 44
0.9
  1
h7
 40
6.25
 41
9.375
  0
LEADER
  5
357
100
AcDbEntity
  8
0
100
AcDbLeader
 62
2
  6
CONTINUOUS
  3
STANDARD
 71
1
 72
0
 73
0
 75
0
 40
6.25
 41
56.8452380952
 76
3
 10
643.0836350563
 20
494.180950999
 30
0.0
 10
691.7515965769
 20
643.3809201264
 30
0.0
 10
704.2515965769
 20
643.3809201264
 30
0.0
340
358
1001
ACAD
1000
DSTYLE
1002
{
1070
77
1070
0
1070
341
1005
213
1002
}
  0
MTEXT
  5
358
102
{ACAD_REACTORS
330
357
102
}
100
AcDbEntity
  8
0
100
AcDbMText
 62
5
  6
CONTINUOUS
  7
STANDARD
 71
1
 72
1
 10
704.2515965769
 20
646.5059201264
 30
0.0
 11
1.0
 21
0.0
 31
0.0
 44
0.9
  1
Key DIN 6885\PA 12x8x70
 40
6.25
 41
56.8452380952
  0
LEADER
  5
359
100
AcDbEntity
  8
0
100
AcDbLeader
 62
2
  6
CONTINUOUS
  3
STANDARD
 71
1
 72
0
 73
0
 75
0
 40
6.25
 41
86.755952381
 76
4
 10
674.8946363216
 20
473.3733596314
 30
0.0
 10
696.2695440237
 20
471.108944436
 30
0.0
 10
663.799146634
 20
318.3809201264
 30
0.0
 10
651.299146634
 20
318.3809201264
 30
0.0
340
35A
1001
ACAD
1000
DSTYLE
1002
{
1070
77
1070
0
1002
}
  0
MTEXT
  5
35A
102
{ACAD_REACTORS
330
359
102
}
100
AcDbEntity
  8
0
100
AcDbMText
 62
5
  6
CONTINUOUS
  7
STANDARD
 71
3
 72
1
 10
651.299146634
 20
321.5059201264
 30
0.0
 11
1.0
 21
0.0
 31
0.0
 44
0.9
  1
Centre bore DIN 332\PDR M16x36
 40
6.25
 41
86.755952381
  0
MTEXT
  5
35B
100
AcDbEntity
  8
0
100
AcDbMText
 62
5
  6
CONTINUOUS
  7
STANDARD
 71
1
 72
1
 10
33.5778791152
 20
565.7415283818
 30
0.0
 11
0.8191520443
 21
-0.5735764364
 31
0.0
 44
0.9
  1
pcd.
 40
6.25
 41
16.5178571429
  0
MTEXT
  5
35C
100
AcDbEntity
  8
0
100
AcDbMText
 62
5
  6
CONTINUOUS
  7
STANDARD
 71
1
 72
1
 10
165.105123572
 20
358.9687996839
 30
0.0
 11
1.0
 21
0.0
 31
0.0
 44
0.9
  1
x20 deep
 40
6.25
 41
37.0535714286
  0
MTEXT
  5
35D
100
AcDbEntity
  8
0
100
AcDbMText
 62
5
  6
CONTINUOUS
  7
STANDARD
 71
1
 72
1
 10
849.1503614899
 20
606.0498017985
 30
0.0
 11
1.0
 21
0.0
 31
0.0
 44
0.9
  1
x30 deep
 40
6.25
 41
36.6071428571
  0
MTEXT
  5
35E
100
AcDbEntity
  8
0
100
AcDbMText
 62
5
  6
CONTINUOUS
  7
STANDARD
 71
1
 72
1
 10
756.0085425131
 20
575.1111904673
 30
0.0
 11
0.8746197071
 21
-0.4848096202
 31
0.0
 44
0.9
  1
pcd.
 40
6.25
 41
16.5178571429
  0
LINE
  5
35F
100
AcDbEntity
  8
0
100
AcDbLine
 62
2
  6
CONTINUOUS
 10
11.9830308685
 20
730.1175988722
 11
11.9830308685
 21
12.587854673
  0
LINE
  5
360
100
AcDbEntity
  8
0
100
AcDbLine
 62
2
  6
CONTINUOUS
 10
11.9830308685
 20
12.587854673
 11
1037.7770200095
 21
12.587854673
  0
LINE
  5
361
100
AcDbEntity
  8
0
100
AcDbLine
 62
2
  6
CONTINUOUS
 10
1037.7770200095
 20
730.1175988722
 11
11.9830308685
 21
730.1175988722
  0
LINE
  5
362
100
AcDbEntity
  8
0
100
AcDbLine
 62
2
  6
CONTINUOUS
 10
1037.7770200095
 20
12.587854673
 11
1037.7770200095
 21
730.1175988722
  0
LINE
  5
363
100
AcDbEntity
  8
0
100
AcDbLine
 62
7
  6
CONTINUOUS
 10
369.3959315248
 20
383.3809201264
 11
369.3959315248
 21
563.3809201264
  0
LINE
  5
364
100
AcDbEntity
  8
BLATT2_3D_ANSICHT
100
AcDbLine
 62
2
  6
CENTER
 10
374.7959315248
 20
530.5309201264
 11
374.7959315248
 21
416.2309201264
  0
LINE
  5
365
100
AcDbEntity
  8
0
100
AcDbLine
 62
7
  6
CONTINUOUS
 10
409.1224288329
 20
449.8809201264
 11
412.0091801788
 21
444.8809201264
  0
LINE
  5
366
100
AcDbEntity
  8
BEZUGSACHSEN
100
AcDbLine
 62
2
  6
CENTER
 10
414.8959315248
 20
449.8809201264
 11
414.8959315248
 21
435.3809201264
  0
LINE
  5
367
100
AcDbEntity
  8
BEZUGSACHSEN
100
AcDbLine
 62
2
  6
CENTER
 10
414.8959315248
 20
449.8809201264
 11
414.8959315248
 21
464.3809201264
  0
LINE
  5
368
100
AcDbEntity
  8
0
100
AcDbLine
 62
7
  6
CONTINUOUS
 10
420.6694342167
 20
449.8809201264
 11
417.7826828707
 21
454.8809201264
  0
LINE
  5
369
100
AcDbEntity
  8
0
100
AcDbLine
 62
7
  6
CONTINUOUS
 10
432.3959315248
 20
383.3809201264
 11
432.3959315248
 21
563.3809201264
  0
LINE
  5
36A
100
AcDbEntity
  8
0
100
AcDbLine
 62
7
  6
CONTINUOUS
 10
412.0091801788
 20
454.8809201264
 11
409.1224288329
 21
449.8809201264
  0
LINE
  5
36B
100
AcDbEntity
  8
0
100
AcDbLine
 62
7
  6
CONTINUOUS
 10
432.3959315248
 20
383.3809201264
 11
369.3959315248
 21
383.3809201264
  0
LINE
  5
36C
100
AcDbEntity
  8
BLATT2_3D_ANSICHT
100
AcDbLine
 62
2
  6
CENTER
 10
449.3959315248
 20
490.8809201264
 11
449.3959315248
 21
455.8809201264
  0
LINE
  5
36D
100
AcDbEntity
  8
0
100
AcDbLine
 62
7
  6
CONTINUOUS
 10
417.7826828707
 20
444.8809201264
 11
420.6694342167
 21
449.8809201264
  0
LINE
  5
36E
100
AcDbEntity
  8
0
100
AcDbLine
 62
7
  6
CONTINUOUS
 10
507.1788935686
 20
550.8809201264
 11
497.8959315248
 21
544.3809201264
  0
LINE
  5
36F
100
AcDbEntity
  8
0
100
AcDbLine
 62
7
  6
CONTINUOUS
 10
432.3959315248
 20
394.0083807945
 11
369.3959315248
 21
394.0083807945
  0
LINE
  5
370
100
AcDbEntity
  8
0
100
AcDbLine
 62
7
  6
CONTINUOUS
 10
577.8959315248
 20
395.8809201264
 11
507.1788935686
 21
395.8809201264
  0
LINE
  5
371
100
AcDbEntity
  8
0
100
AcDbLine
 62
7
  6
CONTINUOUS
 10
507.1788935686
 20
395.8809201264
 11
497.8959315248
 21
402.3809201264
  0
LINE
  5
372
100
AcDbEntity
  8
0
100
AcDbLine
 62
7
  6
CONTINUOUS
 10
497.8959315248
 20
402.3809201264
 11
477.9959315248
 21
402.3809201264
  0
LINE
  5
373
100
AcDbEntity
  8
0
100
AcDbLine
 62
7
  6
CONTINUOUS
 10
477.8959315248
 20
402.4309201264
 11
432.3959315248
 21
402.4309201264
  0
LINE
  5
374
100
AcDbEntity
  8
0
100
AcDbLine
 62
7
  6
CONTINUOUS
 10
583.8959315248
 20
413.3809201264
 11
577.8959315248
 21
413.3809201264
  0
LINE
  5
375
100
AcDbEntity
  8
0
100
AcDbLine
 62
7
  6
CONTINUOUS
 10
477.8959315248
 20
414.1095104925
 11
432.3959315248
 21
414.1095104925
  0
LINE
  5
376
100
AcDbEntity
  8
BLATT2_3D_ANSICHT
100
AcDbLine
 62
2
  6
CENTER
 10
374.7959315248
 20
416.2309201264
 11
369.3959315248
 21
416.2309201264
  0
LINE
  5
377
100
AcDbEntity
  8
0
100
AcDbLine
 62
7
  6
CONTINUOUS
 10
477.8959315248
 20
544.3309201264
 11
477.8959315248
 21
402.4309201264
  0
LINE
  5
378
100
AcDbEntity
  8
FASEN
100
AcDbLine
 62
7
  6
CONTINUOUS
 10
477.9959315248
 20
402.3809201264
 11
477.9959315248
 21
544.3809201264
  0
LINE
  5
379
100
AcDbEntity
  8
0
100
AcDbLine
 62
7
  6
CONTINUOUS
 10
497.8959315248
 20
544.3809201264
 11
497.8959315248
 21
402.3809201264
  0
LINE
  5
37A
100
AcDbEntity
  8
0
100
AcDbLine
 62
7
  6
CONTINUOUS
 10
585.8959315248
 20
443.3809201264
 11
587.8959315248
 21
443.3809201264
  0
LINE
  5
37B
100
AcDbEntity
  8
0
100
AcDbLine
 62
7
  6
CONTINUOUS
 10
412.0091801788
 20
444.8809201264
 11
417.7826828707
 21
444.8809201264
  0
LINE
  5
37C
100
AcDbEntity
  8
0
100
AcDbLine
 62
7
  6
CONTINUOUS
 10
587.8959315248
 20
445.8809201264
 11
592.8959315248
 21
445.8809201264
  0
LINE
  5
37D
100
AcDbEntity
  8
BEZUGSACHSEN
100
AcDbLine
 62
2
  6
CENTER
 10
414.8959315248
 20
449.8809201264
 11
400.3959315248
 21
449.8809201264
  0
LINE
  5
37E
100
AcDbEntity
  8
BEZUGSACHSEN
100
AcDbLine
 62
2
  6
CENTER
 10
414.8959315248
 20
449.8809201264
 11
429.3959315248
 21
449.8809201264
  0
LINE
  5
37F
100
AcDbEntity
  8
0
100
AcDbLine
 62
7
  6
CONTINUOUS
 10
507.1788935686
 20
550.8809201264
 11
507.1788935686
 21
395.8809201264
  0
LINE
  5
380
100
AcDbEntity
  8
0
100
AcDbLine
 62
7
  6
CONTINUOUS
 10
594.8959315248
 20
453.3809201264
 11
673.8959315248
 21
453.3809201264
  0
LINE
  5
381
100
AcDbEntity
  8
0
100
AcDbLine
 62
7
  6
CONTINUOUS
 10
417.7826828707
 20
454.8809201264
 11
412.0091801788
 21
454.8809201264
  0
LINE
  5
382
100
AcDbEntity
  8
BLATT2_3D_ANSICHT
100
AcDbLine
 62
2
  6
CENTER
 10
449.3959315248
 20
455.8809201264
 11
432.3959315248
 21
455.8809201264
  0
LINE
  5
383
100
AcDbEntity
  8
TEIL_STARTBEZUEGE
100
AcDbLine
 62
2
  6
CENTER
 10
361.8959315248
 20
473.3809201264
 11
682.3959315256
 21
473.3809201264
  0
LINE
  5
384
100
AcDbEntity
  8
BLATT2_3D_ANSICHT
100
AcDbLine
 62
2
  6
CENTER
 10
449.3959315248
 20
490.8809201264
 11
432.3959315248
 21
490.8809201264
  0
LINE
  5
385
100
AcDbEntity
  8
BEZUGSACHSEN
100
AcDbLine
 62
7
  6
CONTINUOUS
 10
604.8959315248
 20
492.4597041548
 11
662.8959315248
 21
492.4597041548
  0
LINE
  5
386
100
AcDbEntity
  8
0
100
AcDbLine
 62
7
  6
CONTINUOUS
 10
594.8959315248
 20
493.3809201264
 11
598.8960499759
 21
493.3809201264
  0
LINE
  5
387
100
AcDbEntity
  8
0
100
AcDbLine
 62
7
  6
CONTINUOUS
 10
668.8958130736
 20
493.3809201264
 11
673.8959315248
 21
493.3809201264
  0
LINE
  5
388
100
AcDbEntity
  8
BEZUGSACHSEN
100
AcDbLine
 62
7
  6
CONTINUOUS
 10
598.8964088066
 20
496.3809201264
 11
668.8954542429
 21
496.3809201264
  0
LINE
  5
389
100
AcDbEntity
  8
0
100
AcDbLine
 62
7
  6
CONTINUOUS
 10
587.8959315248
 20
500.8809201264
 11
592.8959315248
 21
500.8809201264
  0
LINE
  5
38A
100
AcDbEntity
  8
0
100
AcDbLine
 62
7
  6
CONTINUOUS
 10
585.8959315248
 20
503.3809201264
 11
587.8959315248
 21
503.3809201264
  0
LINE
  5
38B
100
AcDbEntity
  8
0
100
AcDbLine
 62
7
  6
CONTINUOUS
 10
577.8959315248
 20
550.8809201264
 11
577.8959315248
 21
395.8809201264
  0
LINE
  5
38C
100
AcDbEntity
  8
RUNDUNGEN
100
AcDbLine
 62
9
  6
CONTINUOUS
 10
583.8959315248
 20
413.3809201264
 11
583.8959315248
 21
533.3809201264
  0
LINE
  5
38D
100
AcDbEntity
  8
BLATT2_3D_ANSICHT
100
AcDbLine
 62
2
  6
CENTER
 10
369.3959315248
 20
530.5309201264
 11
374.7959315248
 21
530.5309201264
  0
LINE
  5
38E
100
AcDbEntity
  8
0
100
AcDbLine
 62
7
  6
CONTINUOUS
 10
477.8959315248
 20
532.6523297604
 11
432.3959315248
 21
532.6523297604
  0
LINE
  5
38F
100
AcDbEntity
  8
0
100
AcDbLine
 62
7
  6
CONTINUOUS
 10
583.8959315248
 20
533.3809201264
 11
577.8959315248
 21
533.3809201264
  0
LINE
  5
390
100
AcDbEntity
  8
RUNDUNGEN
100
AcDbLine
 62
7
  6
CONTINUOUS
 10
585.8959315248
 20
415.3809201264
 11
585.8959315248
 21
531.3809201264
  0
LINE
  5
391
100
AcDbEntity
  8
0
100
AcDbLine
 62
7
  6
CONTINUOUS
 10
587.8959315248
 20
443.3812716423
 11
587.8959315248
 21
503.3805686106
  0
LINE
  5
392
100
AcDbEntity
  8
0
100
AcDbLine
 62
7
  6
CONTINUOUS
 10
592.8959315248
 20
445.8812423493
 11
592.8959315248
 21
500.8805979036
  0
LINE
  5
393
100
AcDbEntity
  8
RUNDUNGEN
100
AcDbLine
 62
9
  6
CONTINUOUS
 10
594.8959315248
 20
493.3809201264
 11
594.8959315248
 21
453.3809201264
  0
LINE
  5
394
100
AcDbEntity
  8
0
100
AcDbLine
 62
7
  6
CONTINUOUS
 10
477.8959315248
 20
544.3309201264
 11
432.3959315248
 21
544.3309201264
  0
LINE
  5
395
100
AcDbEntity
  8
0
100
AcDbLine
 62
7
  6
CONTINUOUS
 10
497.8959315248
 20
544.3809201264
 11
477.9959315248
 21
544.3809201264
  0
LINE
  5
396
100
AcDbEntity
  8
BEZUGSACHSEN
100
AcDbLine
 62
7
  6
CONTINUOUS
 10
598.8959315248
 20
493.3808851132
 11
598.8959315248
 21
496.3809201264
  0
LINE
  5
397
100
AcDbEntity
  8
BEZUGSACHSEN
100
AcDbLine
 62
9
  6
CONTINUOUS
 10
604.8959315248
 20
492.4597041548
 11
604.8959315248
 21
496.3809201264
  0
LINE
  5
398
100
AcDbEntity
  8
0
100
AcDbLine
 62
7
  6
CONTINUOUS
 10
577.8959315248
 20
550.8809201264
 11
507.1788935686
 21
550.8809201264
  0
LINE
  5
399
100
AcDbEntity
  8
0
100
AcDbLine
 62
7
  6
CONTINUOUS
 10
432.3959315248
 20
552.7534594584
 11
369.3959315248
 21
552.7534594584
  0
LINE
  5
39A
100
AcDbEntity
  8
0
100
AcDbLine
 62
7
  6
CONTINUOUS
 10
432.3959315248
 20
563.3809201264
 11
369.3959315248
 21
563.3809201264
  0
LINE
  5
39B
100
AcDbEntity
  8
FASEN
100
AcDbLine
 62
7
  6
CONTINUOUS
 10
674.8959315248
 20
454.3809201264
 11
673.8959315248
 21
453.3809201264
  0
LINE
  5
39C
100
AcDbEntity
  8
FASEN
100
AcDbLine
 62
7
  6
CONTINUOUS
 10
674.8959315248
 20
492.3809201264
 11
673.8959315248
 21
493.3809201264
  0
LINE
  5
39D
100
AcDbEntity
  8
BEZUGSACHSEN
100
AcDbLine
 62
9
  6
CONTINUOUS
 10
662.8959315248
 20
492.4597041548
 11
662.8959315248
 21
496.3809201264
  0
LINE
  5
39E
100
AcDbEntity
  8
BEZUGSACHSEN
100
AcDbLine
 62
7
  6
CONTINUOUS
 10
668.8959315248
 20
493.3808851132
 11
668.8959315248
 21
496.3809201264
  0
LINE
  5
39F
100
AcDbEntity
  8
FASEN
100
AcDbLine
 62
7
  6
CONTINUOUS
 10
673.8959315248
 20
453.3809201264
 11
673.8959315248
 21
493.3809201264
  0
LINE
  5
3A0
100
AcDbEntity
  8
FASEN
100
AcDbLine
 62
7
  6
CONTINUOUS
 10
674.8959315248
 20
454.3812522191
 11
674.8959315248
 21
492.3805880338
  0
LINE
  5
3A1
100
AcDbEntity
  8
0
100
AcDbLine
 62
7
  6
CONTINUOUS
 10
78.2012536009
 20
394.0083807945
 11
78.2012536009
 21
552.7534594584
  0
LINE
  5
3A2
100
AcDbEntity
  8
0
100
AcDbLine
 62
7
  6
CONTINUOUS
 10
247.5737929328
 20
383.3809201264
 11
88.828714269
 21
383.3809201264
  0
LINE
  5
3A3
100
AcDbEntity
  8
0
100
AcDbLine
 62
7
  6
CONTINUOUS
 10
97.2512536009
 20
532.6523297604
 11
97.2512536009
 21
504.2911303205
  0
LINE
  5
3A4
100
AcDbEntity
  8
0
100
AcDbLine
 62
7
  6
CONTINUOUS
 10
97.2512536009
 20
442.4707099323
 11
97.2512536009
 21
414.1095104925
  0
LINE
  5
3A5
100
AcDbEntity
  8
0
100
AcDbLine
 62
7
  6
CONTINUOUS
 10
108.9298439669
 20
402.4309201264
 11
137.2910434068
 21
402.4309201264
  0
LINE
  5
3A6
100
AcDbEntity
  8
0
100
AcDbLine
 62
7
  6
CONTINUOUS
 10
199.111463795
 20
402.4309201264
 11
227.4726632349
 21
402.4309201264
  0
LINE
  5
3A7
100
AcDbEntity
  8
BEZUGSACHSEN
100
AcDbLine
 62
7
  6
CONTINUOUS
 10
162.2012536009
 20
492.4597041548
 11
162.2012536009
 21
496.3809201264
  0
LINE
  5
3A8
100
AcDbEntity
  8
TEIL_STARTBEZUEGE
100
AcDbLine
 62
2
  6
CENTER
 10
168.2012536009
 20
368.3809201264
 11
168.2012536009
 21
578.3809201264
  0
LINE
  5
3A9
100
AcDbEntity
  8
TEIL_STARTBEZUEGE
100
AcDbLine
 62
2
  6
CENTER
 10
273.2012536009
 20
473.3809201264
 11
63.2012536009
 21
473.3809201264
  0
LINE
  5
3AA
100
AcDbEntity
  8
BEZUGSACHSEN
100
AcDbLine
 62
7
  6
CONTINUOUS
 10
174.2012536009
 20
492.4597041548
 11
174.2012536009
 21
496.3809201264
  0
LINE
  5
3AB
100
AcDbEntity
  8
BEZUGSACHSEN
100
AcDbLine
 62
7
  6
CONTINUOUS
 10
162.2012536009
 20
496.3809201264
 11
174.2012536009
 21
496.3809201264
  0
LINE
  5
3AC
100
AcDbEntity
  8
0
100
AcDbLine
 62
7
  6
CONTINUOUS
 10
239.1512536009
 20
414.1095104925
 11
239.1512536009
 21
442.4707099323
  0
LINE
  5
3AD
100
AcDbEntity
  8
0
100
AcDbLine
 62
7
  6
CONTINUOUS
 10
239.1512536009
 20
504.2911303205
 11
239.1512536009
 21
532.6523297604
  0
LINE
  5
3AE
100
AcDbEntity
  8
0
100
AcDbLine
 62
7
  6
CONTINUOUS
 10
227.4726632349
 20
544.3309201264
 11
199.111463795
 21
544.3309201264
  0
LINE
  5
3AF
100
AcDbEntity
  8
0
100
AcDbLine
 62
7
  6
CONTINUOUS
 10
137.2910434068
 20
544.3309201264
 11
108.9298439669
 21
544.3309201264
  0
LINE
  5
3B0
100
AcDbEntity
  8
0
100
AcDbLine
 62
7
  6
CONTINUOUS
 10
258.2012536009
 20
552.7534594584
 11
258.2012536009
 21
394.0083807945
  0
LINE
  5
3B1
100
AcDbEntity
  8
0
100
AcDbLine
 62
7
  6
CONTINUOUS
 10
88.828714269
 20
563.3809201264
 11
247.5737929328
 21
563.3809201264
  0
LINE
  5
3B2
100
AcDbEntity
  8
0
100
AcDbLine
 62
7
  6
CONTINUOUS
 10
802.0820829966
 20
552.7534594584
 11
802.0820829966
 21
394.0083807945
  0
LINE
  5
3B3
100
AcDbEntity
  8
0
100
AcDbLine
 62
7
  6
CONTINUOUS
 10
812.7095436647
 20
383.3809201264
 11
971.4546223286
 21
383.3809201264
  0
LINE
  5
3B4
100
AcDbEntity
  8
BEZUGSACHSEN
100
AcDbLine
 62
2
  6
CENTER
 10
821.371404878
 20
544.0915982451
 11
821.371404878
 21
537.5875988554
  0
LINE
  5
3B5
100
AcDbEntity
  8
BEZUGSACHSEN
100
AcDbLine
 62
2
  6
CENTER
 10
821.371404878
 20
402.6702420078
 11
821.371404878
 21
396.0609414104
  0
LINE
  5
3B6
100
AcDbEntity
  8
BEZUGSACHSEN
100
AcDbLine
 62
2
  6
CENTER
 10
821.371404878
 20
402.6702420078
 11
821.371404878
 21
409.2318518248
  0
LINE
  5
3B7
100
AcDbEntity
  8
BEZUGSACHSEN
100
AcDbLine
 62
2
  6
CENTER
 10
821.371404878
 20
544.0915982451
 11
821.371404878
 21
550.5477747032
  0
LINE
  5
3B8
100
AcDbEntity
  8
0
100
AcDbLine
 62
7
  6
CONTINUOUS
 10
847.3317994627
 20
537.8173234481
 11
845.5997486552
 21
534.8173234481
  0
LINE
  5
3B9
100
AcDbEntity
  8
0
100
AcDbLine
 62
7
  6
CONTINUOUS
 10
850.7959010779
 20
531.8173234481
 11
852.5279518854
 21
534.8173234481
  0
LINE
  5
3BA
100
AcDbEntity
  8
BEZUGSACHSEN
100
AcDbLine
 62
2
  6
CENTER
 10
962.7927611153
 20
402.6702420078
 11
956.2554588232
 21
402.6702420078
  0
LINE
  5
3BB
100
AcDbEntity
  8
BEZUGSACHSEN
100
AcDbLine
 62
2
  6
CENTER
 10
821.371404878
 20
402.6702420078
 11
814.7909644739
 21
402.6702420078
  0
LINE
  5
3BC
100
AcDbEntity
  8
BEZUGSACHSEN
100
AcDbLine
 62
2
  6
CENTER
 10
821.371404878
 20
402.6702420078
 11
827.8916300328
 21
402.6702420078
  0
LINE
  5
3BD
100
AcDbEntity
  8
BEZUGSACHSEN
100
AcDbLine
 62
2
  6
CENTER
 10
962.7927611153
 20
402.6702420078
 11
969.1805122432
 21
402.6702420078
  0
LINE
  5
3BE
100
AcDbEntity
  8
0
100
AcDbLine
 62
7
  6
CONTINUOUS
 10
827.6456796749
 20
428.6306365925
 11
830.6456796749
 21
426.898585785
  0
LINE
  5
3BF
100
AcDbEntity
  8
0
100
AcDbLine
 62
7
  6
CONTINUOUS
 10
833.6456796749
 20
432.0947382077
 11
830.6456796749
 21
433.8267890153
  0
LINE
  5
3C0
100
AcDbEntity
  8
0
100
AcDbLine
 62
7
  6
CONTINUOUS
 10
827.6456796749
 20
432.0947382077
 11
827.6456796749
 21
428.6306365925
  0
LINE
  5
3C1
100
AcDbEntity
  8
0
100
AcDbLine
 62
7
  6
CONTINUOUS
 10
833.6456796749
 20
428.6306365925
 11
833.6456796749
 21
432.0947382077
  0
LINE
  5
3C2
100
AcDbEntity
  8
0
100
AcDbLine
 62
7
  6
CONTINUOUS
 10
933.3682649154
 20
408.9445168048
 11
936.8323665305
 21
408.9445168048
  0
LINE
  5
3C3
100
AcDbEntity
  8
0
100
AcDbLine
 62
7
  6
CONTINUOUS
 10
936.8323665305
 20
414.9445168048
 11
933.3682649154
 21
414.9445168048
  0
LINE
  5
3C4
100
AcDbEntity
  8
0
100
AcDbLine
 62
7
  6
CONTINUOUS
 10
904.461461099
 20
443.3809201264
 11
911.7820829966
 21
443.3809201264
  0
LINE
  5
3C5
100
AcDbEntity
  8
0
100
AcDbLine
 62
7
  6
CONTINUOUS
 10
953.5184863183
 20
519.8632544679
 11
950.5184863183
 21
518.1312036603
  0
LINE
  5
3C6
100
AcDbEntity
  8
0
100
AcDbLine
 62
7
  6
CONTINUOUS
 10
845.5997486552
 20
534.8173234481
 11
847.3317994627
 21
531.8173234481
  0
LINE
  5
3C7
100
AcDbEntity
  8
0
100
AcDbLine
 62
7
  6
CONTINUOUS
 10
891.0820829966
 20
455.9095149168
 11
891.0820829966
 21
440.8963083849
  0
LINE
  5
3C8
100
AcDbEntity
  8
TEIL_STARTBEZUEGE
100
AcDbLine
 62
2
  6
CENTER
 10
892.0820829966
 20
368.3809201264
 11
892.0820829966
 21
578.3809201264
  0
LINE
  5
3C9
100
AcDbEntity
  8
0
100
AcDbLine
 62
7
  6
CONTINUOUS
 10
893.0820829966
 20
455.9095149168
 11
893.0820829966
 21
440.8963083849
  0
LINE
  5
3CA
100
AcDbEntity
  8
0
100
AcDbLine
 62
7
  6
CONTINUOUS
 10
953.5184863183
 20
512.9350512376
 11
956.5184863183
 21
514.6671020452
  0
LINE
  5
3CB
100
AcDbEntity
  8
TEIL_STARTBEZUEGE
100
AcDbLine
 62
2
  6
CENTER
 10
787.0820829966
 20
473.3809201264
 11
997.0820829966
 21
473.3809201264
  0
LINE
  5
3CC
100
AcDbEntity
  8
0
100
AcDbLine
 62
7
  6
CONTINUOUS
 10
852.5279518854
 20
534.8173234481
 11
850.7959010779
 21
537.8173234481
  0
LINE
  5
3CD
100
AcDbEntity
  8
0
100
AcDbLine
 62
7
  6
CONTINUOUS
 10
830.6456796749
 20
433.8267890153
 11
827.6456796749
 21
432.0947382077
  0
LINE
  5
3CE
100
AcDbEntity
  8
0
100
AcDbLine
 62
7
  6
CONTINUOUS
 10
830.6456796749
 20
426.898585785
 11
833.6456796749
 21
428.6306365925
  0
LINE
  5
3CF
100
AcDbEntity
  8
0
100
AcDbLine
 62
7
  6
CONTINUOUS
 10
931.6362141078
 20
411.9445168048
 11
933.3682649154
 21
408.9445168048
  0
LINE
  5
3D0
100
AcDbEntity
  8
0
100
AcDbLine
 62
7
  6
CONTINUOUS
 10
938.5644173381
 20
411.9445168048
 11
936.8323665305
 21
414.9445168048
  0
LINE
  5
3D1
100
AcDbEntity
  8
RUNDUNGEN
100
AcDbLine
 62
9
  6
CONTINUOUS
 10
911.7820829966
 20
447.6865291908
 11
911.7820829966
 21
443.3809201264
  0
LINE
  5
3D2
100
AcDbEntity
  8
RUNDUNGEN
100
AcDbLine
 62
7
  6
CONTINUOUS
 10
912.2820829966
 20
448.099757495
 11
912.2820829966
 21
443.8809201264
  0
LINE
  5
3D3
100
AcDbEntity
  8
0
100
AcDbLine
 62
7
  6
CONTINUOUS
 10
950.5184863183
 20
518.1312036603
 11
950.5184863183
 21
514.6671020452
  0
LINE
  5
3D4
100
AcDbEntity
  8
0
100
AcDbLine
 62
7
  6
CONTINUOUS
 10
956.5184863183
 20
514.6671020452
 11
956.5184863183
 21
518.1312036603
  0
LINE
  5
3D5
100
AcDbEntity
  8
0
100
AcDbLine
 62
7
  6
CONTINUOUS
 10
933.3682649154
 20
414.9445168048
 11
931.6362141078
 21
411.9445168048
  0
LINE
  5
3D6
100
AcDbEntity
  8
0
100
AcDbLine
 62
7
  6
CONTINUOUS
 10
847.3317994627
 20
531.8173234481
 11
850.7959010779
 21
531.8173234481
  0
LINE
  5
3D7
100
AcDbEntity
  8
0
100
AcDbLine
 62
7
  6
CONTINUOUS
 10
850.7959010779
 20
537.8173234481
 11
847.3317994627
 21
537.8173234481
  0
LINE
  5
3D8
100
AcDbEntity
  8
0
100
AcDbLine
 62
7
  6
CONTINUOUS
 10
950.5184863183
 20
514.6671020452
 11
953.5184863183
 21
512.9350512376
  0
LINE
  5
3D9
100
AcDbEntity
  8
BEZUGSACHSEN
100
AcDbLine
 62
2
  6
CENTER
 10
962.7927611153
 20
544.0915982451
 11
962.7927611153
 21
537.5565001579
  0
LINE
  5
3DA
100
AcDbEntity
  8
BEZUGSACHSEN
100
AcDbLine
 62
2
  6
CENTER
 10
962.7927611153
 20
402.6702420078
 11
962.7927611153
 21
396.3664640867
  0
LINE
  5
3DB
100
AcDbEntity
  8
BEZUGSACHSEN
100
AcDbLine
 62
2
  6
CENTER
 10
962.7927611153
 20
402.6702420078
 11
962.7927611153
 21
409.1861502234
  0
LINE
  5
3DC
100
AcDbEntity
  8
BEZUGSACHSEN
100
AcDbLine
 62
2
  6
CENTER
 10
962.7927611153
 20
544.0915982451
 11
962.7927611153
 21
550.5078953988
  0
LINE
  5
3DD
100
AcDbEntity
  8
0
100
AcDbLine
 62
7
  6
CONTINUOUS
 10
936.8323665305
 20
408.9445168048
 11
938.5644173381
 21
411.9445168048
  0
LINE
  5
3DE
100
AcDbEntity
  8
BEZUGSACHSEN
100
AcDbLine
 62
2
  6
CENTER
 10
962.7927611153
 20
544.0915982451
 11
956.1987042898
 21
544.0915982451
  0
LINE
  5
3DF
100
AcDbEntity
  8
BEZUGSACHSEN
100
AcDbLine
 62
2
  6
CENTER
 10
821.371404878
 20
544.0915982451
 11
814.9972775194
 21
544.0915982451
  0
LINE
  5
3E0
100
AcDbEntity
  8
BEZUGSACHSEN
100
AcDbLine
 62
2
  6
CENTER
 10
821.371404878
 20
544.0915982451
 11
827.8169636561
 21
544.0915982451
  0
LINE
  5
3E1
100
AcDbEntity
  8
BEZUGSACHSEN
100
AcDbLine
 62
2
  6
CENTER
 10
962.7927611153
 20
544.0915982451
 11
969.2379056001
 21
544.0915982451
  0
LINE
  5
3E2
100
AcDbEntity
  8
0
100
AcDbLine
 62
7
  6
CONTINUOUS
 10
956.5184863183
 20
518.1312036603
 11
953.5184863183
 21
519.8632544679
  0
LINE
  5
3E3
100
AcDbEntity
  8
0
100
AcDbLine
 62
7
  6
CONTINUOUS
 10
982.0820829966
 20
394.0083807945
 11
982.0820829966
 21
552.7534594584
  0
LINE
  5
3E4
100
AcDbEntity
  8
0
100
AcDbLine
 62
7
  6
CONTINUOUS
 10
971.4546223286
 20
563.3809201264
 11
812.7095436647
 21
563.3809201264
  0
CIRCLE
  5
3E5
100
AcDbEntity
  8
BEZUGSACHSEN
100
AcDbCircle
 62
7
  6
CONTINUOUS
 10
414.8959315248
 20
449.8809201264
 40
10.0
  0
ARC
  5
3E6
100
AcDbEntity
  8
RUNDUNGEN
100
AcDbCircle
 62
7
  6
CONTINUOUS
 10
583.8959315248
 20
415.3809201264
 40
2.0
100
AcDbArc
 50
270.0
 51
360.0
  0
ARC
  5
3E7
100
AcDbEntity
  8
RUNDUNGEN
100
AcDbCircle
 62
7
  6
CONTINUOUS
 10
583.8959315248
 20
531.3809201264
 40
2.0
100
AcDbArc
 50
0.0
 51
90.0
  0
ARC
  5
3E8
100
AcDbEntity
  8
RUNDUNGEN
100
AcDbCircle
 62
7
  6
CONTINUOUS
 10
594.8959315248
 20
495.3809201264
 40
2.0
100
AcDbArc
 50
180.0
 51
270.0
  0
ARC
  5
3E9
100
AcDbEntity
  8
RUNDUNGEN
100
AcDbCircle
 62
7
  6
CONTINUOUS
 10
594.8959315248
 20
451.3809201264
 40
2.0
100
AcDbArc
 50
90.0
 51
180.0
  0
ARC
  5
3EA
100
AcDbEntity
  8
0
100
AcDbCircle
 62
2
  6
CONTINUOUS
 10
98.2012536009
 20
473.3809201264
 40
5.0
100
AcDbArc
 50
255.0
 51
195.0
  0
CIRCLE
  5
3EB
100
AcDbEntity
  8
BEZUGSACHSEN
100
AcDbCircle
 62
7
  6
CONTINUOUS
 10
98.2012536009
 20
473.3809201264
 40
4.25
  0
ARC
  5
3EC
100
AcDbEntity
  8
0
100
AcDbCircle
 62
2
  6
CONTINUOUS
 10
168.2012536009
 20
403.3809201264
 40
5.0
100
AcDbArc
 50
255.0
 51
195.0
  0
CIRCLE
  5
3ED
100
AcDbEntity
  8
BEZUGSACHSEN
100
AcDbCircle
 62
7
  6
CONTINUOUS
 10
168.2012536009
 20
403.3809201264
 40
4.25
  0
ARC
  5
3EE
100
AcDbEntity
  8
0
100
AcDbCircle
 62
7
  6
CONTINUOUS
 10
168.2012536009
 20
473.3809201264
 40
120.0
100
AcDbArc
 50
131.4096221093
 51
138.5903778907
  0
ARC
  5
3EF
100
AcDbEntity
  8
0
100
AcDbCircle
 62
7
  6
CONTINUOUS
 10
168.2012536009
 20
473.3809201264
 40
120.0
100
AcDbArc
 50
221.4096221093
 51
228.5903778907
  0
ARC
  5
3F0
100
AcDbEntity
  8
0
100
AcDbCircle
 62
7
  6
CONTINUOUS
 10
168.2012536009
 20
473.3809201264
 40
120.0
100
AcDbArc
 50
311.4096221093
 51
318.5903778907
  0
ARC
  5
3F1
100
AcDbEntity
  8
0
100
AcDbCircle
 62
7
  6
CONTINUOUS
 10
168.2012536009
 20
473.3809201264
 40
120.0
100
AcDbArc
 50
41.4096221093
 51
48.5903778907
  0
ARC
  5
3F2
100
AcDbEntity
  8
0
100
AcDbCircle
 62
7
  6
CONTINUOUS
 10
168.2012536009
 20
473.3809201264
 40
92.45
100
AcDbArc
 50
129.8752773571
 51
140.1247226429
  0
ARC
  5
3F3
100
AcDbEntity
  8
0
100
AcDbCircle
 62
7
  6
CONTINUOUS
 10
168.2012536009
 20
473.3809201264
 40
92.45
100
AcDbArc
 50
39.8752773571
 51
50.1247226429
  0
ARC
  5
3F4
100
AcDbEntity
  8
0
100
AcDbCircle
 62
7
  6
CONTINUOUS
 10
168.2012536009
 20
473.3809201264
 40
92.45
100
AcDbArc
 50
309.8752773571
 51
320.1247226429
  0
ARC
  5
3F5
100
AcDbEntity
  8
0
100
AcDbCircle
 62
7
  6
CONTINUOUS
 10
168.2012536009
 20
473.3809201264
 40
92.45
100
AcDbArc
 50
219.8752773571
 51
230.1247226429
  0
CIRCLE
  5
3F6
100
AcDbEntity
  8
0
100
AcDbCircle
 62
7
  6
CONTINUOUS
 10
168.2012536009
 20
473.3809201264
 40
77.5
  0
CIRCLE
  5
3F7
100
AcDbEntity
  8
BLATT2_3D_ANSICHT
100
AcDbCircle
 62
2
  6
CENTER
 10
168.2012536009
 20
473.3809201264
 40
70.0
  0
CIRCLE
  5
3F8
100
AcDbEntity
  8
RUNDUNGEN
100
AcDbCircle
 62
7
  6
CONTINUOUS
 10
168.2012536009
 20
473.3809201264
 40
60.0
  0
CIRCLE
  5
3F9
100
AcDbEntity
  8
RUNDUNGEN
100
AcDbCircle
 62
9
  6
CONTINUOUS
 10
168.2012536009
 20
473.3809201264
 40
58.0
  0
CIRCLE
  5
3FA
100
AcDbEntity
  8
0
100
AcDbCircle
 62
7
  6
CONTINUOUS
 10
168.2012536009
 20
473.3809201264
 40
30.0
  0
CIRCLE
  5
3FB
100
AcDbEntity
  8
0
100
AcDbCircle
 62
7
  6
CONTINUOUS
 10
168.2012536009
 20
473.3809201264
 40
27.5
  0
ARC
  5
3FC
100
AcDbEntity
  8
RUNDUNGEN
100
AcDbCircle
 62
9
  6
CONTINUOUS
 10
168.2012536009
 20
473.3809201264
 40
22.0
100
AcDbArc
 50
105.8629698175
 51
74.1370294029
  0
CIRCLE
  5
3FD
100
AcDbEntity
  8
FASEN
100
AcDbCircle
 62
7
  6
CONTINUOUS
 10
168.2012536009
 20
473.3809201264
 40
20.0
  0
CIRCLE
  5
3FE
100
AcDbEntity
  8
FASEN
100
AcDbCircle
 62
7
  6
CONTINUOUS
 10
168.2012536009
 20
473.3809201264
 40
19.0
  0
CIRCLE
  5
3FF
100
AcDbEntity
  8
BOHRUNGEN
100
AcDbCircle
 62
7
  6
CONTINUOUS
 10
168.2012536009
 20
473.3809201264
 40
11.5
  0
CIRCLE
  5
400
100
AcDbEntity
  8
BOHRUNGEN
100
AcDbCircle
 62
7
  6
CONTINUOUS
 10
168.2012536009
 20
473.3809201264
 40
8.5
  0
ARC
  5
401
100
AcDbEntity
  8
0
100
AcDbCircle
 62
2
  6
CONTINUOUS
 10
168.2012536009
 20
473.3809201264
 40
8.0
100
AcDbArc
 50
255.0
 51
195.0
  0
CIRCLE
  5
402
100
AcDbEntity
  8
BOHRUNGEN
100
AcDbCircle
 62
7
  6
CONTINUOUS
 10
168.2012536009
 20
473.3809201264
 40
7.05
  0
CIRCLE
  5
403
100
AcDbEntity
  8
BOHRUNGEN
100
AcDbCircle
 62
7
  6
CONTINUOUS
 10
168.2012536009
 20
473.3809201264
 40
7.0
  0
ARC
  5
404
100
AcDbEntity
  8
0
100
AcDbCircle
 62
2
  6
CONTINUOUS
 10
168.2012536009
 20
543.3809201264
 40
5.0
100
AcDbArc
 50
255.0
 51
195.0
  0
CIRCLE
  5
405
100
AcDbEntity
  8
BEZUGSACHSEN
100
AcDbCircle
 62
7
  6
CONTINUOUS
 10
168.2012536009
 20
543.3809201264
 40
4.25
  0
ARC
  5
406
100
AcDbEntity
  8
0
100
AcDbCircle
 62
2
  6
CONTINUOUS
 10
238.2012536009
 20
473.3809201264
 40
5.0
100
AcDbArc
 50
255.0
 51
195.0
  0
CIRCLE
  5
407
100
AcDbEntity
  8
BEZUGSACHSEN
100
AcDbCircle
 62
7
  6
CONTINUOUS
 10
238.2012536009
 20
473.3809201264
 40
4.25
  0
CIRCLE
  5
408
100
AcDbEntity
  8
BEZUGSACHSEN
100
AcDbCircle
 62
7
  6
CONTINUOUS
 10
830.6456796749
 20
430.3626874001
 40
7.5
  0
CIRCLE
  5
409
100
AcDbEntity
  8
0
100
AcDbCircle
 62
7
  6
CONTINUOUS
 10
830.6456796749
 20
430.3626874001
 40
6.5
  0
ARC
  5
40A
100
AcDbEntity
  8
0
100
AcDbCircle
 62
2
  6
CONTINUOUS
 10
821.371404878
 20
402.6702420078
 40
6.0
100
AcDbArc
 50
255.0
 51
195.0
  0
CIRCLE
  5
40B
100
AcDbEntity
  8
BEZUGSACHSEN
100
AcDbCircle
 62
7
  6
CONTINUOUS
 10
821.371404878
 20
402.6702420078
 40
5.1
  0
CIRCLE
  5
40C
100
AcDbEntity
  8
BEZUGSACHSEN
100
AcDbCircle
 62
7
  6
CONTINUOUS
 10
849.0638502703
 20
534.8173234481
 40
7.5
  0
CIRCLE
  5
40D
100
AcDbEntity
  8
0
100
AcDbCircle
 62
7
  6
CONTINUOUS
 10
849.0638502703
 20
534.8173234481
 40
6.5
  0
ARC
  5
40E
100
AcDbEntity
  8
0
100
AcDbCircle
 62
2
  6
CONTINUOUS
 10
821.371404878
 20
544.0915982451
 40
6.0
100
AcDbArc
 50
255.0
 51
195.0
  0
CIRCLE
  5
40F
100
AcDbEntity
  8
BEZUGSACHSEN
100
AcDbCircle
 62
7
  6
CONTINUOUS
 10
821.371404878
 20
544.0915982451
 40
5.1
  0
CIRCLE
  5
410
100
AcDbEntity
  8
BEZUGSACHSEN
100
AcDbCircle
 62
7
  6
CONTINUOUS
 10
935.100315723
 20
411.9445168048
 40
7.5
  0
CIRCLE
  5
411
100
AcDbEntity
  8
0
100
AcDbCircle
 62
7
  6
CONTINUOUS
 10
935.100315723
 20
411.9445168048
 40
6.5
  0
ARC
  5
412
100
AcDbEntity
  8
0
100
AcDbCircle
 62
2
  6
CONTINUOUS
 10
962.7927611153
 20
402.6702420078
 40
6.0
100
AcDbArc
 50
255.0
 51
195.0
  0
CIRCLE
  5
413
100
AcDbEntity
  8
BEZUGSACHSEN
100
AcDbCircle
 62
7
  6
CONTINUOUS
 10
962.7927611153
 20
402.6702420078
 40
5.1
  0
ARC
  5
414
100
AcDbEntity
  8
RUNDUNGEN
100
AcDbCircle
 62
7
  6
CONTINUOUS
 10
911.7820829966
 20
443.8809201264
 40
0.5
100
AcDbArc
 50
270.0
 51
360.0
  0
ARC
  5
415
100
AcDbEntity
  8
0
100
AcDbCircle
 62
7
  6
CONTINUOUS
 10
892.0820829966
 20
473.3809201264
 40
120.0
100
AcDbArc
 50
131.4096221093
 51
138.5903778907
  0
ARC
  5
416
100
AcDbEntity
  8
0
100
AcDbCircle
 62
7
  6
CONTINUOUS
 10
892.0820829966
 20
473.3809201264
 40
120.0
100
AcDbArc
 50
41.4096221093
 51
48.5903778907
  0
ARC
  5
417
100
AcDbEntity
  8
0
100
AcDbCircle
 62
7
  6
CONTINUOUS
 10
892.0820829966
 20
473.3809201264
 40
120.0
100
AcDbArc
 50
311.4096221093
 51
318.5903778907
  0
ARC
  5
418
100
AcDbEntity
  8
0
100
AcDbCircle
 62
7
  6
CONTINUOUS
 10
892.0820829966
 20
473.3809201264
 40
120.0
100
AcDbArc
 50
221.4096221093
 51
228.5903778907
  0
CIRCLE
  5
419
100
AcDbEntity
  8
BLATT1_ANSICHT_ABTRIEB
100
AcDbCircle
 62
2
  6
CENTER
 10
892.0820829966
 20
473.3809201264
 40
100.0
  0
CIRCLE
  5
41A
100
AcDbEntity
  8
0
100
AcDbCircle
 62
7
  6
CONTINUOUS
 10
892.0820829966
 20
473.3809201264
 40
57.15
  0
CIRCLE
  5
41B
100
AcDbEntity
  8
0
100
AcDbCircle
 62
7
  6
CONTINUOUS
 10
892.0820829966
 20
473.3809201264
 40
49.0
  0
CIRCLE
  5
41C
100
AcDbEntity
  8
0
100
AcDbCircle
 62
7
  6
CONTINUOUS
 10
892.0820829966
 20
473.3809201264
 40
37.5
  0
CIRCLE
  5
41D
100
AcDbEntity
  8
0
100
AcDbCircle
 62
9
  6
CONTINUOUS
 10
892.0820829966
 20
473.3809201264
 40
36.5
  0
ARC
  5
41E
100
AcDbEntity
  8
0
100
AcDbCircle
 62
7
  6
CONTINUOUS
 10
892.0820829966
 20
473.3809201264
 40
32.5
100
AcDbArc
 50
271.7632253576
 51
268.2367746424
  0
ARC
  5
41F
100
AcDbEntity
  8
0
100
AcDbCircle
 62
7
  6
CONTINUOUS
 10
892.0820829966
 20
473.3809201264
 40
27.0
100
AcDbArc
 50
267.8774486379
 51
272.1225513621
  0
CIRCLE
  5
420
100
AcDbEntity
  8
0
100
AcDbCircle
 62
7
  6
CONTINUOUS
 10
892.0820829966
 20
473.3809201264
 40
17.5
  0
CIRCLE
  5
421
100
AcDbEntity
  8
BEZUGSACHSEN
100
AcDbCircle
 62
7
  6
CONTINUOUS
 10
953.5184863183
 20
516.3991528528
 40
7.5
  0
CIRCLE
  5
422
100
AcDbEntity
  8
0
100
AcDbCircle
 62
7
  6
CONTINUOUS
 10
953.5184863183
 20
516.3991528528
 40
6.5
  0
ARC
  5
423
100
AcDbEntity
  8
0
100
AcDbCircle
 62
2
  6
CONTINUOUS
 10
962.7927611153
 20
544.0915982451
 40
6.0
100
AcDbArc
 50
255.0
 51
195.0
  0
CIRCLE
  5
424
100
AcDbEntity
  8
BEZUGSACHSEN
100
AcDbCircle
 62
7
  6
CONTINUOUS
 10
962.7927611153
 20
544.0915982451
 40
5.1
  0
SPLINE
  5
425
100
AcDbEntity
  8
BEZUGSACHSEN
100
AcDbSpline
 62
7
  6
CONTINUOUS
 70
0
 71
3
 72
17
 73
13
 74
0
 42
0.0000001
 43
0.0000001
 44
0.0000000001
 40
0.0
 40
0.0
 40
0.0
 40
0.0
 40
0.3789970054
 40
0.55059254
 40
0.7018066638
 40
0.8270955943
 40
0.8783961402
 40
0.9213356216
 40
0.9553643967
 40
0.9800387485
 40
0.9949837269
 40
1.0
 40
1.0
 40
1.0
 40
1.0
 10
662.8959315248
 20
492.4597041548
 30
0.0
 10
663.6653680734
 20
492.4597041548
 30
0.0
 10
664.7846223065
 20
492.5280935729
 30
0.0
 10
666.1947034293
 20
492.7349258597
 30
0.0
 10
667.0878484075
 20
492.9093405986
 30
0.0
 10
667.7359028713
 20
493.0616031656
 30
0.0
 10
668.1670612324
 20
493.1740907716
 30
0.0
 10
668.4187253047
 20
493.241900758
 30
0.0
 10
668.6160735311
 20
493.3002857496
 30
0.0
 10
668.7623758507
 20
493.3371975116
 30
0.0
 10
668.8443503118
 20
493.3717563131
 30
0.0
 10
668.8882945767
 20
493.3741828565
 30
0.0
 10
668.8959315243
 20
493.380920126
 30
0.0
  0
SPLINE
  5
426
100
AcDbEntity
  8
BEZUGSACHSEN
100
AcDbSpline
 62
7
  6
CONTINUOUS
 70
0
 71
3
 72
21
 73
17
 74
0
 42
0.0000001
 43
0.0000001
 44
0.0000000001
 40
0.0
 40
0.0
 40
0.0
 40
0.0
 40
0.001257143
 40
0.0050155365
 40
0.011255676
 40
0.0199580828
 40
0.0446283575
 40
0.0786515083
 40
0.1215838299
 40
0.1728757998
 40
0.2319424639
 40
0.2981479403
 40
0.4493358696
 40
0.6209013015
 40
0.8067390266
 40
1.0
 40
1.0
 40
1.0
 40
1.0
 10
598.8959315252
 20
493.380920126
 30
0.0
 10
598.897573103
 20
493.3828749715
 30
0.0
 10
598.9092735521
 20
493.3733937892
 30
0.0
 10
598.929292936
 20
493.3731379835
 30
0.0
 10
598.9667470447
 20
493.3587591512
 30
0.0
 10
599.0432456089
 20
493.3381031501
 30
0.0
 10
599.1750898171
 20
493.2981977077
 30
0.0
 10
599.3734155632
 20
493.2427113071
 30
0.0
 10
599.6247131358
 20
493.1738041324
 30
0.0
 10
599.9259482208
 20
493.0956052873
 30
0.0
 10
600.2742289354
 20
493.0103895842
 30
0.0
 10
600.82172586
 20
492.8863084938
 30
0.0
 10
601.5971478059
 20
492.7349307325
 30
0.0
 10
602.6193903045
 20
492.5850407646
 30
0.0
 10
603.7335180544
 20
492.4835146567
 30
0.0
 10
604.5035065699
 20
492.4597041548
 30
0.0
 10
604.8959315248
 20
492.4597041548
 30
0.0
  0
ENDSEC
  0
SECTION
  2
OBJECTS
  0
DICTIONARY
  5
C
100
AcDbDictionary
280
0
281
1
  3
ACAD_GROUP
350
D
  3
ACAD_MLINESTYLE
350
17
  3
ACAD_LAYOUT
350
1A
  3
ACAD_PLOTSETTINGS
350
19
  3
ACAD_PLOTSTYLENAME
350
E
  0
DICTIONARY
  5
D
102
{ACAD_REACTORS
330
C
102
}
100
AcDbDictionary
280
0
281
1
  0
ACDBDICTIONARYWDFLT
  5
E
102
{ACAD_REACTORS
330
C
102
}
100
AcDbDictionary
281
1
  3
Normal
350
F
100
AcDbDictionaryWithDefault
340
F
  0
DICTIONARY
  5
17
102
{ACAD_REACTORS
330
C
102
}
100
AcDbDictionary
280
0
281
1
  3
Standard
350
18
  0
DICTIONARY
  5
19
102
{ACAD_REACTORS
330
C
102
}
100
AcDbDictionary
281
1
  0
DICTIONARY
  5
1A
102
{ACAD_REACTORS
330
C
102
}
100
AcDbDictionary
281
1
  3
Model
350
427
  3
Layout1
350
428
  0
ACDBPLACEHOLDER
  5
F
102
{ACAD_REACTORS
330
E
102
}
  0
MLINESTYLE
  5
18
102
{ACAD_REACTORS
330
17
102
}
100
AcDbMlineStyle
  2
STANDARD
 70
0
  3

 62
256
 51
90.0
 52
90.0
 71
2
 49
0.5
 62
256
  6
BYLAYER
 49
-0.5
 62
256
  6
BYLAYER
  0
LAYOUT
  5
427
102
{ACAD_REACTORS
330
1A
102
}
100
AcDbPlotSettings
  1

  2
none_device
  4
ISO_A3_(420.00_x_297.00_MM)
  6

 40
0.0
 41
0.0
 42
0.0
 43
0.0
 44
420.0
 45
297.0
 46
0.0
 47
0.0
 48
0.0
 49
0.0
140
0.0
141
0.0
142
1.0
143
1.0
 70
1024
 72
1
 73
0
 74
0
  7

 75
0
147
1.0
148
0.0
149
0.0
100
AcDbLayout
  1
Model
 70
0
 71
0
 10
0.0
 20
0.0
 11
420.0
 21
297.0
 12
0.0
 22
0.0
 32
0.0
 14
0.0
 24
0.0
 34
0.0
 15
0.0
 25
0.0
 35
0.0
146
0.0
 13
0.0
 23
0.0
 33
0.0
 16
1.0
 26
0.0
 36
0.0
 17
0.0
 27
1.0
 37
0.0
 76
0
330
210
345
0
346
0
  0
LAYOUT
  5
428
102
{ACAD_REACTORS
330
1A
102
}
100
AcDbPlotSettings
  1

  2
none_device
  4
ISO_A3_(420.00_x_297.00_MM)
  6

 40
0.0
 41
0.0
 42
0.0
 43
0.0
 44
420.0
 45
297.0
 46
0.0
 47
0.0
 48
0.0
 49
0.0
140
0.0
141
0.0
142
1.0
143
1.0
 70
0
 72
1
 73
0
 74
0
  7

 75
0
147
1.0
148
0.0
149
0.0
100
AcDbLayout
  1
Layout1
 70
0
 71
1
 10
0.0
 20
0.0
 11
420.0
 21
297.0
 12
0.0
 22
0.0
 32
0.0
 14
0.0
 24
0.0
 34
0.0
 15
0.0
 25
0.0
 35
0.0
146
0.0
 13
0.0
 23
0.0
 33
0.0
 16
1.0
 26
0.0
 36
0.0
 17
0.0
 27
1.0
 37
0.0
 76
0
330
211
345
0
346
0
  0
ENDSEC
  0
EOF
